Loading...
Error

Скачать Простофиля / Gribouille (Марк Аллегре) [1937, драма, комедия, DVDRip] [VO]+[Оригинал]+[Sub] торрент без регистрации

 
Статистика раздачи
Размер:  1,46 GB   |    Скачан:  85 раз
Сидов:  1  [  0 KB/s  ]  
 
Автор Сообщение

Marsianka

[] 

Информация о фильме
Название: Простофиля
Оригинальное название: Gribouille
Год выхода: 1937
Жанр: драма, комедия
Режиссер: Марк Аллегре
В ролях: Мишель Морган, Жильбер Жиль,Жан Ворм, Жюльен Каретт ,Марсель Андре ,Жак Гретийя ,Жак Бомер ,Андре ,Рене Бержерон ,Джинн Провост ,Андре Симеон ,Жаклин Пако Дженни Кэрол ,Бернар Блие

О фильме:
Камиль Морестан, владелец магазина велосипедов, однажды оказывается в составе суда присяжных по делу молодой женщины, Натали Роган, обвиняемой в убийстве своего любовника. Глубоко взволнованному и растроганному историей девушки, Камилю удаётся убедить своих коллег присяжных в её невиновности, и она оправдана. Находясь без средств к существованию, Натали принимает любезное предложение Камиля, устраиваясь на работу в его магазин, и занимает одну из комнат в его доме. Клод, единственный сын Камиля, знает, что Натали судили за убийство, но безумно влюбляется в неё. Между тем, один из присяжных продолжает давить на Камиля, настаивая на том, что Натали является испорченной женщиной с опасным прошлым. Неужели история повторится?



Страна: Франция
Продолжительность: 01:22:58
Перевод: Любительский (одноголосый, закадровый)

Файл
Кодек: XviD
Качество: DVDRip
Видео: 688x528 (4:3), 25 fps, 2120 Kbps
Аудио 1: AC3, 48.0 KHz, 2 ch., 192 Kbps (русский одноголосый закадровый перевод) - М.Кенс
Аудио 2: AC3, 48.0 KHz, 2 ch., 192 Kbps (оригинальная французская звуковая дорожка)
Субтитры: русские
Семпл
Общее
Полное имя : F:раздачиGribouille 1937Gribouille.avi
Формат : AVI
Формат/Информация : Audio Video Interleave
Размер файла : 1,46 Гбайт
Продолжительность : 1 ч. 22 м.
Общий поток : 2518 Кбит/сек
Программа кодирования : VirtualDubMod 1.5.10.3 | www.virtualdub-fr.org || (build 2550/release)
Библиотека кодирования : VirtualDubMod build 2550/release

Видео
Идентификатор : 0
Формат : MPEG-4 Visual
Профиль формата : Advanced Simple@L5
Параметр BVOP формата : 2
Параметр QPel формата : Нет
Параметр GMC формата : Без точки перехода
Параметр матрицы формата : Default (H.263)
Идентификатор кодека : DX50
Идентификатор кодека/Подсказка : DivX 5
Продолжительность : 1 ч. 22 м.
Битрейт : 2120 Кбит/сек
Ширина : 688 пикселей
Высота : 528 пикселей
Соотношение сторон : 4:3
Частота кадров : 25,000 кадров/сек
Цветовое пространство : YUV
Субдискретизация насыщенности : 4:2:0
Битовая глубина : 8 бит
Тип развёртки : Прогрессивная
Метод сжатия : С потерями
Бит/(Пиксели*Кадры) : 0.233
Размер потока : 1,23 Гбайт (84%)
Библиотека кодирования : XviD 73

Аудио #1
Идентификатор : 1
Формат : AC-3
Формат/Информация : Audio Coding 3
Расширение режима : CM (complete main)
Параметр Endianness формата : Big
Идентификатор кодека : 2000
Продолжительность : 1 ч. 22 м.
Вид битрейта : Постоянный
Битрейт : 192 Кбит/сек
Каналы : 2 канала
Расположение каналов : Front: L R
Частота : 48,0 КГц
Битовая глубина : 16 бит
Метод сжатия : С потерями
Размер потока : 114 Мбайт (8%)
Выравнивание : Разделение по промежуткам
Продолжительность промежутка : 40 мс. (1,00 видеокадр)
Время предзагрузки промежутка : 500 мс.

Аудио #2
Идентификатор : 2
Формат : AC-3
Формат/Информация : Audio Coding 3
Режим : Dual Mono
Расширение режима : CM (complete main)
Параметр Endianness формата : Big
Идентификатор кодека : 2000
Продолжительность : 1 ч. 22 м.
Вид битрейта : Постоянный
Битрейт : 192 Кбит/сек
Каналы : 3 канала
Channel(s)_Original : 2 канала
Расположение каналов : Dual mono
Частота : 48,0 КГц
Битовая глубина : 16 бит
Метод сжатия : С потерями
Размер потока : 114 Мбайт (8%)
Выравнивание : Разделение по промежуткам
Продолжительность промежутка : 40 мс. (1,00 видеокадр)
Время предзагрузки промежутка : 500 мс.



Скачать Простофиля.Gribouille.(Марк.Аллегре).[1937.драма.комедия.DVDRip].[VO]+[Оригинал]+[Sub].torrent без регистрации
Золото ЗОЛОТАЯ РАЗДАЧА! СКАЧАННОЕ НЕ ЗАСЧИТЫВАЕТСЯ! Золото
Дата: Зарегистрирован   [ Тип: внутренний ] Как тут cкачать?
MAGNET ссылка
MAGNET ссылка


Скачать .torrent

15 KB

Статус: проверено DHT
Скачан: торрент - 85 раз, раздача полностью - 4 раз
Размер: 1,46 GB
Оценка:  - (Голосов: 0)
Поблагодарили: 1
Поделиться ссылкой на эту раздачу с друзьями:
В контактеFacebookОдноклассникиTwitterLivejournalМой МирLiveinternet
 

 
Показать сообщения:    


Вы не можете начинать темы
Вы не можете отвечать на сообщения
Вы не можете редактировать свои сообщения
Вы не можете удалять свои сообщения
Вы не можете голосовать в опросах
Вы не можете прикреплять файлы к сообщениям
Вы можете скачивать файлы