Loading...
Error

Скачать Я счастлив, что моя мать жива / Je suis heureux que ma mère soit vivante (Клод Миллер, Натан Миллер) [2009, драма, DVDRip-AVC] [MVO] торрент без регистрации

 
Статистика раздачи
Размер:  1,2 GB   |    Скачан:  127 раз
Сидов:  1  [  0 KB/s  ]  
 
Автор Сообщение

Marsianka

[] 

Информация о фильме
Название: Я счастлив, что моя мать жива
Оригинальное название: Je suis heureux que ma mère soit vivante
Год выхода: 2009
Жанр: драма
Режиссер: Клод Миллер / Claude Miller, Натан Миллер / Nathan Miller
В ролях: Винсент Ротье, Софи Каттани, Кристин Китти, Ив Верховен, Максим Ренард, Оливье Герите, Лудо Харли, Габен Лефевр, Квентин Гонзалез, Шанталь Банлье

О фильме:
Это история про юношу, который одержим идеей найти свою "биологическую" мать, бросившую его в детстве.
"Мне 20 лет. Меня зовут Тома. Тома Жюве. Но это мое ненастоящее имя. Мое реальное имя – Томми Мартино. Я сменил его, потому что моя мать, Джули Мартино, бросила меня и моего маленького брата, когда мне было 4, а ему 2 года. Я нашел свою мать год назад, у нее есть еще один сын, Фредерик. Ему 7 лет, мне сегодня – 20. И как некоторые мужчины, у которых есть две девушки одновременно, у меня было сразу две матери: моя настоящая мать и мадам Жюве, приемная, которая вырастила меня, которая пахла сиренью и нежно прижимала меня к своей прекрасной груди. И так как я нашел свою мать, я жил сначала с одной, а потом с другой, и ни одна из них не подозревала об этом. У меня было две матери и, возможно, одна была лишней …"


Страна: Франция
Студия: F Comme Film, Orly Films, France 3 Cinéma
Продолжительность: 01:26:53.000
Перевод: Профессиональный (многоголосый закадровый) R5

Файл
Кодек: h.264
Качество: DVDRip-AVC
Видео: 704x544 (1.85:1) @ 1000x544 (анаморф), 25.000 fps, AVC, ~1272 Kbps, 0.133 bits/pixel

Русский, 48.0 KHz, AC3, 2 ch, 256 Kbps
Французский, 48.0 KHz, AC3, 6 ch, 448 Kbps
Субтитры: нет
Общее
Уникальный идентификатор : 199366248369262051893622139131613706893 (0x95FC8AF28BA53D25BF5B12FFE4687A8D)
Полное имя : G:FILMSJa_schastliv_chto_moja_mat_zhiva.2009.DVDRip-AVC.mkv
Формат : Matroska
Версия формата : Version 4 / Version 2
Размер файла : 1,20 Гбайт
Продолжительность : 1 ч. 26 м.
Общий поток : 1976 Кбит/сек
Дата кодирования : UTC 2015-02-08 18:59:24
Программа кодирования : mkvmerge v7.4.0 ('Circles') 64bit built on Dec 12 2014 12:19:56
Библиотека кодирования : libebml v1.3.0 + libmatroska v1.4.1
_STATISTICS_WRITING_APP : mkvmerge v7.4.0 ('Circles') 64bit built on Dec 12 2014 12:19:56
_STATISTICS_WRITING_DATE_UTC : 2015-02-08 18:59:24
_STATISTICS_TAGS : BPS DURATION NUMBER_OF_FRAMES NUMBER_OF_BYTES
DURATION : 01:26:52.992000000
NUMBER_OF_FRAMES : 162906
NUMBER_OF_BYTES : 291927552

Видео
Идентификатор : 1
Формат : AVC
Формат/Информация : Advanced Video Codec
Профиль формата : High@L4.1
Параметр CABAC формата : Да
Параметр ReFrames формата : 16 кадров
Идентификатор кодека : V_MPEG4/ISO/AVC
Продолжительность : 1 ч. 26 м.
Битрейт : 1272 Кбит/сек
Ширина : 704 пикселя
Высота : 544 пикселя
Соотношение сторон : 1,85:1
Соотношение сторон в оригинале : 1,85:1
Режим частоты кадров : Постоянный
Частота кадров : 25,000 кадров/сек
Цветовое пространство : YUV
Субдискретизация насыщенности : 4:2:0
Битовая глубина : 8 бит
Тип развёртки : Прогрессивная
Бит/(Пиксели*Кадры) : 0.133
Размер потока : 766 Мбайт (62%)
Библиотека кодирования : x264 core 142 r2431 ac76440
Настройки программы : cabac=1 / ref=16 / deblock=1:0:0 / analyse=0x3:0x133 / me=umh / subme=10 / psy=1 / psy_rd=1.10:0.10 / mixed_ref=1 / me_range=32 / chroma_me=1 / trellis=2 / 8x8dct=1 / cqm=0 / deadzone=21,11 / fast_pskip=0 / chroma_qp_offset=-6 / threads=8 / lookahead_threads=1 / sliced_threads=0 / nr=0 / decimate=0 / interlaced=0 / bluray_compat=0 / constrained_intra=0 / bframes=9 / b_pyramid=2 / b_adapt=2 / b_bias=0 / direct=3 / weightb=1 / open_gop=0 / weightp=2 / keyint=250 / keyint_min=25 / scenecut=40 / intra_refresh=0 / rc_lookahead=60 / rc=2pass / mbtree=0 / bitrate=1272 / ratetol=1.0 / qcomp=0.60 / qpmin=0 / qpmax=69 / qpstep=4 / cplxblur=20.0 / qblur=0.5 / vbv_maxrate=50000 / vbv_bufsize=62500 / nal_hrd=none / filler=0 / ip_ratio=1.40 / pb_ratio=1.30 / aq=1:1.00
Default : Нет
Forced : Нет
Коэффициенты матрицы : BT.601
colour_range : Limited
_STATISTICS_WRITING_APP : mkvmerge v7.4.0 ('Circles') 64bit built on Dec 12 2014 12:19:56
_STATISTICS_WRITING_DATE_UTC : 2015-02-08 18:59:24
_STATISTICS_TAGS : BPS DURATION NUMBER_OF_FRAMES NUMBER_OF_BYTES
DURATION : 01:26:53.000000000
NUMBER_OF_FRAMES : 130325
NUMBER_OF_BYTES : 827427789

Аудио #1
Идентификатор : 2
Формат : AC-3
Формат/Информация : Audio Coding 3
Расширение режима : CM (complete main)
Параметр Endianness формата : Big
Идентификатор кодека : A_AC3
Продолжительность : 1 ч. 26 м.
Вид битрейта : Постоянный
Битрейт : 256 Кбит/сек
Каналы : 2 канала
Расположение каналов : Front: L R
Частота : 48,0 КГц
Битовая глубина : 16 бит
Метод сжатия : С потерями
Размер потока : 159 Мбайт (13%)
Язык : Russian
Default : Да
Forced : Нет

Аудио #2
Идентификатор : 3
Формат : AC-3
Формат/Информация : Audio Coding 3
Расширение режима : CM (complete main)
Параметр Endianness формата : Big
Идентификатор кодека : A_AC3
Продолжительность : 1 ч. 26 м.
Вид битрейта : Постоянный
Битрейт : 448 Кбит/сек
Каналы : 6 каналов
Расположение каналов : Front: L C R, Side: L R, LFE
Частота : 48,0 КГц
Битовая глубина : 16 бит
Метод сжатия : С потерями
Размер потока : 278 Мбайт (23%)
Язык : French
Default : Нет
Forced : Нет

Меню
00:00:00.000 : en:Chapter 01
00:03:20.720 : en:Chapter 02
00:07:45.120 : en:Chapter 03
00:11:19.120 : en:Chapter 04
00:21:35.680 : en:Chapter 05
00:24:20.760 : en:Chapter 06
00:31:42.640 : en:Chapter 07
00:41:09.000 : en:Chapter 08
00:49:40.880 : en:Chapter 09
00:54:30.920 : en:Chapter 10
01:01:58.360 : en:Chapter 11
01:09:48.440 : en:Chapter 12
01:14:59.680 : en:Chapter 13
01:17:27.840 : en:Chapter 14
01:21:32.120 : en:Chapter 15
01:23:46.320 : en:Chapter 16
frame I:970 Avg QP:15.77 size: 41123
frame P:28671 Avg QP:18.90 size: 14429
frame B:100684 Avg QP:20.26 size: 3713
Исходник R2 DVD9 Релиз от: Temperest



Скачать Я.счастлив.что.моя.мать.жива.Je.suis.heureux.que.ma.mère.soit.vivante.(Клод.Миллер.Натан.Миллер).[2009.драма.DVDRip-AVC].[MVO].torrent без регистрации
Золото ЗОЛОТАЯ РАЗДАЧА! СКАЧАННОЕ НЕ ЗАСЧИТЫВАЕТСЯ! Золото
Дата: Зарегистрирован   [ Тип: внутренний ] Как тут cкачать?
MAGNET ссылка
MAGNET ссылка


Скачать .torrent

13 KB

Статус: проверено DHT
Скачан: торрент - 127 раз, раздача полностью - 0 раз
Размер: 1,2 GB
Оценка:  - (Голосов: 0)
Поблагодарили: 1
Поделиться ссылкой на эту раздачу с друзьями:
В контактеFacebookОдноклассникиTwitterLivejournalМой МирLiveinternet
 

 
Показать сообщения:    


Вы не можете начинать темы
Вы не можете отвечать на сообщения
Вы не можете редактировать свои сообщения
Вы не можете удалять свои сообщения
Вы не можете голосовать в опросах
Вы не можете прикреплять файлы к сообщениям
Вы можете скачивать файлы