Loading...
Error

Скачать Килджой / Киллджойс / Кайфоломы / Killjoys (сезон 01) (Крис Грисмер и др.) [2015, фантастика, WEB-DL] [1080p] [MVO (LostFilm)]+[Eng]+[Sub Eng] торрент без регистрации

 
Статистика раздачи
Размер:  17,75 GB   |    Скачан:  313 раз
Сидов:  1  [  69 KB/s  ]  
 
Автор Сообщение

МихаНЕзатор

[] 

Информация о фильме
Название: Килджой Киллджойс Кайфоломы
Оригинальное название: Killjoys
Год выхода: 2015
Жанр: фантастика
Режиссер: Крис Грисмер, Паоло Барзмен, Энди Микита

В ролях: Том Эллисон, Тамсен МакДонаф, Аарон Эшмор, Роб Стюарт, Ханна Джон-Кэймен, Люк МакФарлейн, Сара Пауэр, Нора МакЛеллан, Морган Келли, Данка Щепанович, Фрэнк Мур

О фильме: Сериал рассказывает о трио охотников за головами Джоне, Д’Эвинсе и Датче. Их команда промышляет охотой на преступников в далёкой галактике Квад, где вот-вот грянет классовая война. Герои поклялись друг другу, что не будут поддерживать ни одну из сторон конфликта, где бы они не оказались.



Страна: Канада
Студия: Temple Street Productions Limited
Продолжительность: ~ 00:43:00 серия
Перевод: Профессиональный (многоголосый закадровый) LostFilm

Файл
Кодек: AVC/H.264
Качество: WEB-DL 1080
Видео: 1920x1080 (1.778), 23.976 fps, ~ 5085 kbps
Звук:
Аудио rus: AC-3, 48 KHz, 6 ch, 384 kbps | LostFilm
Аудио eng: AC-3, 48 KHz, 6 ch, 384 kbps | original
Субтитры: английские

Релиз от: Skyns61

АНОНСЫ ПОПУЛЯРНЫХ РАЗДАЧ


Торрент обновлён, добавлена 10-я серия!

01. Переполох /Bangarang
02. Рейд на Шугар-Пойнт /The Sugar Point Run
03. Жатва /The Harvest
04. Сосуд /Vessel
05. Глюк в системе /A Glitch in the System
06. Одной крови /One Blood
07. Здравствуй и прощай /Kiss Kiss, Bye Bye
08. Да хлынет дождь /Come the Rain
09. Противостояние Клайну /Enemy Khlyen
10. Скорость освобождения /Escape Velocity
Монтаж, работа со звуком: Skyns61
Выделенный Voiceover от «LostFilm» был наложен на центр оригинального AC3.

Общее
Уникальный идентификатор : 176118433396402498821413529010105648252 (0x847F2D2CB91BD346A3E305B4709E847C)
Полное имя : G:FilmsKilljoys.S01.LostFilm.DD5.1Killjoys.S01E01.1080p.WEB-DL.LostFilm.DD5.1.mkv
Формат : Matroska
Версия формата : Version 4 / Version 2
Размер файла : 1,78 Гбайт
Продолжительность : 42 м.
Общий поток : 5971 Кбит/сек
Дата кодирования : UTC 2015-06-22 06:20:22
Программа кодирования : mkvmerge v7.9.0 ('Birds') 64bit
Библиотека кодирования : libebml v1.3.1 + libmatroska v1.4.2
DURATION : 00:42:36.000000000
NUMBER_OF_FRAMES : 79875
NUMBER_OF_BYTES : 122688000
_STATISTICS_WRITING_APP : mkvmerge v7.9.0 ('Birds') 64bit
_STATISTICS_WRITING_DATE_UTC : 2015-06-22 06:20:22
_STATISTICS_TAGS : BPS DURATION NUMBER_OF_FRAMES NUMBER_OF_BYTES

Видео
Идентификатор : 1
Формат : AVC
Формат/Информация : Advanced Video Codec
Профиль формата : High@L4.0
Параметр CABAC формата : Да
Параметр ReFrames формата : 4 кадра
Идентификатор кодека : V_MPEG4/ISO/AVC
Продолжительность : 42 м.
Битрейт : 5085 Кбит/сек
Ширина : 1920 пикселей
Высота : 1080 пикселей
Соотношение сторон : 16:9
Режим частоты кадров : Постоянный
Частота кадров : 23,976 кадра/сек
Цветовое пространство : YUV
Субдискретизация насыщенности : 4:2:0
Битовая глубина : 8 бит
Тип развёртки : Прогрессивная
Бит/(Пиксели*Кадры) : 0.102
Размер потока : 1,51 Гбайт (85%)
Язык : English
Default : Да
Forced : Нет
Основные цвета : BT.709
Характеристики трансфера : BT.709
Коэффициенты матрицы : BT.709
colour_range : Limited

Аудио #1
Идентификатор : 2
Формат : AC-3
Формат/Информация : Audio Coding 3
Расширение режима : CM (complete main)
Параметр Endianness формата : Big
Идентификатор кодека : A_AC3
Продолжительность : 42 м.
Вид битрейта : Постоянный
Битрейт : 384 Кбит/сек
Каналы : 6 каналов
Расположение каналов : Front: L C R, Side: L R, LFE
Частота : 48,0 КГц
Битовая глубина : 16 бит
Метод сжатия : С потерями
Размер потока : 117 Мбайт (6%)
Заголовок : LostFilm 5.1
Язык : Russian
Default : Да
Forced : Нет

Аудио #2
Идентификатор : 3
Формат : AC-3
Формат/Информация : Audio Coding 3
Расширение режима : CM (complete main)
Параметр Endianness формата : Big
Идентификатор кодека : A_AC3
Продолжительность : 42 м.
Вид битрейта : Постоянный
Битрейт : 384 Кбит/сек
Каналы : 6 каналов
Расположение каналов : Front: L C R, Side: L R, LFE
Частота : 48,0 КГц
Битовая глубина : 16 бит
Метод сжатия : С потерями
Размер потока : 117 Мбайт (6%)
Заголовок : original 5.1
Язык : English
Default : Нет
Forced : Нет

Текст
Идентификатор : 4
Формат : UTF-8
Идентификатор кодека : S_TEXT/UTF8
Идентификатор кодека/Информация : UTF-8 Plain Text
Заголовок : CC
Язык : English
Default : Нет
Forced : Нет

Когда раздача ведётся путём добавления новых серий, при каждом добавлении создётся новый торрент. Чтобы начать докачку новой серии, пользователям необходимо сделать следующее:
(1) остановить скачивание,
(2) удалить старый торрент у себя из клиента (старые серии удалять не надо),
(3) скачать новый торрент и запустить его у себя в клиенте вместо старого, при этом указать клиенту путь в старую папку, куда и должно происходить скачивание новых серий.
Ваш клиент при этом должен произвести хеширование (проверку) старой папки (если не производит сам - помогите ему сделать это), и будет докачивать только те серии, которых у вас ещё нет. Старые серии при этом не удаляются, а продолжают раздаваться!
Eсли вы уже удалили старые серии, то предотвратить повторную закачку старых серий можно, отжав галочку в соответсвующих местах при запуске нового торрента. По возможности, желательно не удалять старые серии как можно дольше, чтобы релизёр не столько продолжал раздавать старые серии, а смог сконцентрироваться на новых.



Скачать Килджой.Киллджойс.Кайфоломы.Killjoys.(сезон.01).(Крис.Грисмер.и.др.).[2015.фантастика.WEB-DL].[1080p].[MVO.(LostFilm)]+[Eng]+[Sub.Eng].torrent без регистрации
Золото ЗОЛОТАЯ РАЗДАЧА! СКАЧАННОЕ НЕ ЗАСЧИТЫВАЕТСЯ! Золото
Дата: Зарегистрирован   [ Тип: внутренний ] Как тут cкачать?
MAGNET ссылка
MAGNET ссылка


Скачать .torrent

46 KB

Статус: проверено DHT
Скачан: торрент - 313 раз, раздача полностью - 23 раз
Размер: 17,75 GB
Оценка:  5 (Голосов: 2)
Поблагодарили: 5
Поделиться ссылкой на эту раздачу с друзьями:
В контактеFacebookОдноклассникиTwitterLivejournalМой МирLiveinternet
 

 
Показать сообщения:    


Вы не можете начинать темы
Вы не можете отвечать на сообщения
Вы не можете редактировать свои сообщения
Вы не можете удалять свои сообщения
Вы не можете голосовать в опросах
Вы не можете прикреплять файлы к сообщениям
Вы можете скачивать файлы