Loading...
Error

Скачать Алая буква / The Scarlet Letter (Роланд Жоффе) [1995, мелодрама, драма, WEB-DLRip] [MVO] торрент без регистрации

 
Статистика раздачи
Размер:  1,47 GB   |    Скачан:  90 раз
Сидов:  1  [  0 KB/s  ]  
 
Автор Сообщение

Marsianka

[] 

Информация о фильме
Название: Алая буква
Оригинальное название: The Scarlet Letter
Год выхода: 1995
Жанр: мелодрама, драма
Режиссер: Роланд Жоффе
В ролях: Деми Мур, Гари Олдман, Роберт Дювалл, Лиза Жолиффе-Андо, Эдвард Хардуик, Роберт Проски, Рой Дотрис, Джоан Плаурайт, Малкольм Сторри, Джеймс Берден

О фильме:
История запретной любви в Америке 17-го века красавицы Эстер и преподобного Артура. Против влюбленных выступают строгие пуританские нравы и особенно то, что Эстер «де-юре» замужем, хотя и считает мужа погибшим на пути к колонии.

Когда её внебрачные отношения раскрываются, Эстер решительно отказывается предать возлюбленного и ей выносят приговор - вечно носить на груди алую букву А - «клеймо» прелюбодеяния.



Страна: США
Продолжительность: 02:15:24
Перевод: Многоголосый закадровый, iTunes Russia

Файл
Кодек: XviD
Качество: WEB-DLRip
Видео: 688x384, 23,976 fps, 1352 kbps
Звук: 48 kHz, AC3, 2/0 (L,R) ch, ~192.00 kbps
Общее
Полное имя : The.Scarlet.Letter.1995.WEB-DLRip.avi
Формат : AVI
Формат/Информация : Audio Video Interleave
Размер файла : 1,47 Гбайт
Продолжительность : 2 ч. 15 м.
Общий поток : 1553 Кбит/сек
Программа кодирования : VirtualDubMod 1.5.10.3 | www.virtualdub-fr.org || (build 2550/release)
Библиотека кодирования : VirtualDubMod build 2550/release

Видео
Идентификатор : 0
Формат : MPEG-4 Visual
Профиль формата : Advanced Simple@L5
Параметр BVOP формата : 1
Параметр QPel формата : Нет
Параметр GMC формата : Без точки перехода
Параметр матрицы формата : Выборочная
Идентификатор кодека : XVID
Идентификатор кодека/Подсказка : XviD
Продолжительность : 2 ч. 15 м.
Битрейт : 1352 Кбит/сек
Ширина : 688 пикс.
Высота : 384 пикс.
Соотношение сторон : 16:9
Частота кадров : 23,976 кадр/сек
Цветовое пространство : YUV
Подвыборка цветности : 4:2:0
Битовая глубина : 8 бит
Тип развёртки : Прогрессивная
Метод сжатия : С потерями
Бит/(Пиксели*Кадры) : 0.213
Размер потока : 1,28 Гбайт (87%)
Библиотека кодирования : XviD 73

Аудио
Идентификатор : 1
Формат : AC-3
Формат/Информация : Audio Coding 3
Расширение режима : CM (complete main)
Идентификатор кодека : 2000
Продолжительность : 2 ч. 15 м.
Вид битрейта : Постоянный
Битрейт : 192 Кбит/сек
Канал(ы) : 2 канала(ов)
Расположение каналов : Front: L R
Частота : 48,0 КГц
Битовая глубина : 16 бит
Метод сжатия : С потерями
Размер потока : 186 Мбайт (12%)
Выравнивание : Разделение по промежуткам
Продолжительность промежутка : 42 мс. (1,00 видеокадр)
Время предзагрузки промежутка : 500 ms
Релиз от: Leon-masl



Скачать Алая.буква.The.Scarlet.Letter.(Роланд.Жоффе).[1995.мелодрама.драма.WEB-DLRip].[MVO].torrent без регистрации
Золото ЗОЛОТАЯ РАЗДАЧА! СКАЧАННОЕ НЕ ЗАСЧИТЫВАЕТСЯ! Золото
Дата: Зарегистрирован   [ Тип: внутренний ] Как тут cкачать?
MAGNET ссылка
MAGNET ссылка


Скачать .torrent

16 KB

Статус: проверено DHT
Скачан: торрент - 90 раз, раздача полностью - 6 раз
Размер: 1,47 GB
Оценка:  - (Голосов: 0)
Поблагодарили: 1
Поделиться ссылкой на эту раздачу с друзьями:
В контактеFacebookОдноклассникиTwitterLivejournalМой МирLiveinternet
 

 
Показать сообщения:    


Вы не можете начинать темы
Вы не можете отвечать на сообщения
Вы не можете редактировать свои сообщения
Вы не можете удалять свои сообщения
Вы не можете голосовать в опросах
Вы не можете прикреплять файлы к сообщениям
Вы можете скачивать файлы