Loading...
Error

Скачать Киборг 2: Стеклянная тень / Cyborg 2: Glass Shadow (Майкл Шродер) [1993, фантастика, боевик, WEB-DLRip-AVC] [MVO]+[Sub] торрент без регистрации

 
Статистика раздачи
Размер:  1,45 GB   |    Скачан:  98 раз
Сидов:  1  [  0 KB/s  ]  
 
Автор Сообщение

Marsianka

[] 

Название: Киборг 2: Стеклянная Тень
Оригинальное название: Cyborg 2: Glass Shadow
Год выпуска: 1993
Жанр: фантастика, боевик
Выпущено: США, Freedom Filmworks International, Trimark Pictures
Продолжительность: 01:39:20
Перевод: Профессиональный многоголосый
Субтитры: Английские

Режиссер: Майкл Шродер

В ролях: Анджелина Джоли, Элиас Котеас, Джек Пэланс, Билли Драго, Карен Шеперд, Аллен Гарфилд, Рик Янг, Рени Гриффин, Свен-Оле Торсен, Трейси Уолтер, Джим Янгс, Роберт Драйер, Джон Дёрбин, Патрик О’Коннелл, Шерил Мэри Льюис, Лори Мишель, Элизабет Санг, Мэтт Демеритт, Ален Сильвер, Гален Юэнь, Уильям Колон, Ирвинг Боньос, Дэвид Шредер, Рик Хилл, Лайнес Хаффман

О фильме:
2074 год. Земля охвачена борьбой крупнейших корпораций. Кобайяши Электроникс (Япония) и Пинуил Роботикс (США) сражаются за контроль над индустрией производства программного обеспечения и производства киборгов. Киборги заменили людей во всех отношениях: от солдата на поле боя до проститутки в борделе. В американской корпорации создан киборг в виде красивой женщины, в тело которой была введена мощнейшая жидкая взрывчатка. Эта «киборгша» должна была пойти на переговоры с руководством японской корпорации и там взорваться. Все, наверное, так и произошло бы, но красоткой увлекся ее учитель каратэ и закрутилось-понеслось…



Качество: WEB-DLRip-AVC
Видео: AVC, 1024x428 (2.35:1), 23.976 fps, 1 712 Kbps (0.163 bit/pixel)
Аудио: AC-3, 48.0 KHz, 6 ch, 384 Kbps, CBR (Russian)
x264 [info]: frame I:1002 Avg QP:16.62 size: 48635
x264 [info]: frame P:37375 Avg QP:19.14 size: 16798
x264 [info]: frame B:104534 Avg QP:21.40 size: 5717
_____________________________________________________________________

Формат : Matroska
Версия формата : Version 2
Размер файла : 1,45 Гбайт
Продолжительность : 1 ч. 39 м.
Общий поток : 2096 Кбит/сек
Дата кодирования : UTC 2015-02-18 12:13:59
Программа кодирования : mkvmerge v5.3.0 ('I could have danced') built on Feb 9 2012 10:38:07
Библиотека кодирования : libebml v1.2.3 + libmatroska v1.3.0
Attachment : Yes

Видео
Идентификатор : 1
Формат : AVC
Формат/Информация : Advanced Video Codec
Профиль формата : High@L4.1
Параметр CABAC формата : Да
Параметр ReFrames формата : 10 кадров
Идентификатор кодека : V_MPEG4/ISO/AVC
Продолжительность : 1 ч. 39 м.
Битрейт : 1712 Кбит/сек
Ширина : 1024 пикселя
Высота : 428 пикселей
Соотношение сторон : 2,40:1
Режим частоты кадров : Постоянный
Частота кадров : 23,976 кадра/сек
Цветовое пространство : YUV
Субдискретизация насыщенности : 4:2:0
Битовая глубина : 8 бит
Тип развёртки : Прогрессивная
Бит/(Пиксели*Кадры) : 0.163
Размер потока : 1,16 Гбайт (80%)
Библиотека кодирования : x264 core 142 r2431 ac76440
Настройки программы : cabac=1 / ref=10 / deblock=1:-3:-3 / analyse=0x3:0x133 / me=umh / subme=10 / psy=1 / psy_rd=1.00:0.15 / mixed_ref=1 / me_range=32 / chroma_me=1 / trellis=2 / 8x8dct=1 / cqm=0 / deadzone=21,11 / fast_pskip=1 / chroma_qp_offset=-3 / threads=12 / lookahead_threads=2 / sliced_threads=0 / nr=0 / decimate=0 / interlaced=0 / bluray_compat=0 / constrained_intra=0 / bframes=8 / b_pyramid=2 / b_adapt=2 / b_bias=0 / direct=3 / weightb=1 / open_gop=0 / weightp=2 / keyint=240 / keyint_min=23 / scenecut=40 / intra_refresh=0 / rc=2pass / mbtree=0 / bitrate=1712 / ratetol=1.0 / qcomp=0.60 / qpmin=0 / qpmax=69 / qpstep=4 / cplxblur=20.0 / qblur=0.5 / ip_ratio=1.40 / pb_ratio=1.30 / aq=1:1.00
Язык : English
Default : Да
Forced : Нет

Аудио
Идентификатор : 2
Формат : AC-3
Формат/Информация : Audio Coding 3
Расширение режима : CM (complete main)
Параметр Endianness формата : Big
Идентификатор кодека : A_AC3
Продолжительность : 1 ч. 39 м.
Вид битрейта : Постоянный
Битрейт : 384 Кбит/сек
Каналы : 6 каналов
Расположение каналов : Front: L C R, Side: L R, LFE
Частота : 48,0 КГц
Битовая глубина : 16 бит
Метод сжатия : С потерями
Задержка видео : 12 мс.
Размер потока : 273 Мбайт (18%)
Заголовок : MVO (Russian)
Язык : Russian
Default : Да
Forced : Нет

Текст
Идентификатор : 3
Формат : UTF-8
Идентификатор кодека : S_TEXT/UTF8
Идентификатор кодека/Информация : UTF-8 Plain Text
Заголовок : Eng
Язык : English
Default : Нет
Forced : Нет

Меню
00:00:00.000 : en:Chapter 1
00:05:05.000 : en:Chapter 2
00:13:57.000 : en:Chapter 3
00:22:53.000 : en:Chapter 4
00:31:59.000 : en:Chapter 5
00:42:12.000 : en:Chapter 6
00:52:58.000 : en:Chapter 7
01:01:37.000 : en:Chapter 8
01:11:47.000 : en:Chapter 9
01:19:41.000 : en:Chapter 10
01:28:23.000 : en:Chapter 11
01:35:32.000 : en:Chapter 12



Скачать Киборг.2.Стеклянная.тень.Cyborg.2.Glass.Shadow.(Майкл.Шродер).[1993.фантастика.боевик.WEB-DLRip-AVC].[MVO]+[Sub].torrent без регистрации
Золото ЗОЛОТАЯ РАЗДАЧА! СКАЧАННОЕ НЕ ЗАСЧИТЫВАЕТСЯ! Золото
Дата: Зарегистрирован   [ Тип: внутренний ] Как тут cкачать?
MAGNET ссылка
MAGNET ссылка


Скачать .torrent

15 KB

Статус: проверено DHT
Скачан: торрент - 98 раз, раздача полностью - 11 раз
Размер: 1,45 GB
Оценка:  - (Голосов: 0)
Поблагодарили: 0
Поделиться ссылкой на эту раздачу с друзьями:
В контактеFacebookОдноклассникиTwitterLivejournalМой МирLiveinternet
 

 
Показать сообщения:    


Вы не можете начинать темы
Вы не можете отвечать на сообщения
Вы не можете редактировать свои сообщения
Вы не можете удалять свои сообщения
Вы не можете голосовать в опросах
Вы не можете прикреплять файлы к сообщениям
Вы можете скачивать файлы