Loading...
Error

Скачать Небо над Берлином / Der Himmel über Berlin (Вим Вендерс / Wim Wenders) [1987, Германия, Франция, фэнтези, драма, мелодрама, детектив, BDRip] [AVO] (Ю.Сербин) торрент без регистрации

 
Статистика раздачи
Размер:  2,06 GB   |    Скачан:  107 раз
Сидов:  1  [  0 KB/s  ]  
 
Автор Сообщение

leon030982

[] 

Небо над Берлином / Der Himmel über Berlin
Страна: Германия, Франция
Жанр: фэнтези, драма, мелодрама, детектив
Год выпуска: 1987
Продолжительность: 02:07:44
Перевод: Авторский (одноголосый, закадровый) [Юрий Сербин]
Cубтитры: нет

Режиссер: Вим Вендерс / Wim Wenders

В ролях: Бруно Ганц, Сольвейг Доммартин, Отто Зандер, Курт Буа, Питер Фальк, Ганс Мартин Стир, Эльмар Вильмс, Зигурд Рахман, Беатрис Мановски, Лайош Ковач

Описание: Невидимые людям ангелы фланируют по разделенному стеной Берлину, заглядывая в дома, мысли и души его обитателей. Один из них готов променять вечность в раю на любовь акробатки из цирка. Но по силам ли небесному созданию выдержать земные чувства?



Качество видео: ВDRip
Формат видео: AVI
Видео кодек: XviD
Аудио кодек: AC3
Видео: 720x432 (1.67:1), 23.976 fps, XviD build 50 ~1858 kbps avg, 0.25 bit/pixel
Аудио: 48 kHz, AC3 Dolby Digital, 3/2 (L,C,R,l,r) + LFE ch, ~448 kbps
за видеоряд спасибо derdevil1
За Сербина спасибо пользователям форумов: Е180 (luka69, dsk71, kabukiman, chontvari, kiruxa-k, uchitel538, Gennady 2013, Эдуард, Foots, denis_mgn_1987) и HDTracker (timur, ultrajeka, Xerman13, KpucTo161, Gross1978, GaryH, Volshebnik, Sonny Black, KerkP, ylnian, Tagansky, Dyermaker 2.0, Dr. Destructo, nekazz), а также anton966
Полное имя : Небо над Берлином.avi
Формат : AVI
Формат/Информация : Audio Video Interleave
Профиль формата : OpenDML
Размер файла : 2,06 Гбайт
Продолжительность : 2 ч. 7 м.
Общий поток : 2313 Кбит/сек
Программа кодирования : VirtualDubMod 1.5.10.2 (build 2540/release)
Библиотека кодирования : VirtualDubMod build 2540/release
Видео
Идентификатор : 0
Формат : MPEG-4 Visual
Профиль формата : Advanced Simple@L5
Параметр BVOP формата : 1
Параметр QPel формата : Нет
Параметр GMC формата : Без точки перехода
Параметр матрицы формата : Выборочная
Идентификатор кодека : XVID
Идентификатор кодека/Подсказка : XviD
Продолжительность : 2 ч. 7 м.
Битрейт : 1853 Кбит/сек
Ширина : 720 пикселей
Высота : 432 пикселя
Соотношение сторон : 1,667
Частота кадров : 23,976 кадра/сек
Цветовое пространство : YUV
Субдискретизация насыщенности : 4:2:0
Битовая глубина : 8 бит
Тип развёртки : Прогрессивная
Метод сжатия : С потерями
Бит/(Пиксели*Кадры) : 0.248
Размер потока : 1,65 Гбайт (80%)
Библиотека кодирования : XviD 1.2.1 (UTC 2008-12-04)
Аудио
Идентификатор : 1
Формат : AC-3
Формат/Информация : Audio Coding 3
Расширение режима : CM (complete main)
Параметр Endianness формата : Big
Идентификатор кодека : 2000
Продолжительность : 2 ч. 7 м.
Вид битрейта : Постоянный
Битрейт : 448 Кбит/сек
Каналы : 6 каналов
Расположение каналов : Front: L C R, Side: L R, LFE
Частота : 48,0 КГц
Битовая глубина : 16 бит
Метод сжатия : С потерями
Размер потока : 409 Мбайт (19%)
Выравнивание : Разделение по промежуткам
Продолжительность промежутка : 42 мс. (1,00 видеокадр)
Время предзагрузки промежутка : 500 мс.



Скачать Небо.над.Берлином.Der.Himmel.über.Berlin.(Вим.Вендерс.Wim.Wenders).[1987.Германия.Франция.фэнтези.драма.мелодрама.детектив.BDRip].[AVO].(Ю.Сербин).torrent без регистрации
Золото ЗОЛОТАЯ РАЗДАЧА! СКАЧАННОЕ НЕ ЗАСЧИТЫВАЕТСЯ! Золото
Дата: Зарегистрирован   [ Тип: внутренний ] Как тут cкачать?
MAGNET ссылка
MAGNET ссылка


Скачать .torrent

11 KB

Статус: проверено DHT
Скачан: торрент - 107 раз, раздача полностью - 29 раз
Размер: 2,06 GB
Оценка:  - (Голосов: 0)
Поблагодарили: 0
Поделиться ссылкой на эту раздачу с друзьями:
В контактеFacebookОдноклассникиTwitterLivejournalМой МирLiveinternet
 

 
Показать сообщения:    


Вы не можете начинать темы
Вы не можете отвечать на сообщения
Вы не можете редактировать свои сообщения
Вы не можете удалять свои сообщения
Вы не можете голосовать в опросах
Вы не можете прикреплять файлы к сообщениям
Вы можете скачивать файлы