Loading...
Error

Скачать За пределами / Существующая / Extant (сезоны 01-02) (Дэн Лернер и др.) [2014-2015, фантастика, Триллер, Детектив, Драма, WEB-DLRip] [MVO (Аmedia, LostFilm)] торрент без регистрации

 
Статистика раздачи
Размер:  15,68 GB   |    Скачан:  2042 раза

Полного источника не было: 26 минут

 
Автор Сообщение

МихаНЕзатор

[] 

Информация о фильме
Название: За пределами (Выжившая, Существующая)
Оригинальное название: Extant
Год выхода: 2014-2015
Жанр: Фантастика, триллер, драма
Режиссер: Дэн Лернер, Кристин Мур

В ролях: Холли Берри, Горан Вишнич, Пирс Гэнон, Грэйс Гаммер, Джеффри Дин Морган, Дэвид Моррисси, Тайлер Хилтон, Омар Гудинг, Бэрри Шебака Хенли, Кристина Чанг, Темина Санни, Хилари Бёртон, Джон Биллингсли, Дэвид Клейтон Роджерс, Кирси Клемонс, Некар Задеган, Хосе Абрил

О фильме: Молли Уотс только что вернулась домой из 13-месячной одиночной космической экспедиции. Все это время женщина-астронавт провела на космической станции совершенно одна. И от того совершенно немыслимым кажется ей известие о том, что она беременна. Как это могло произойти? Что теперь будет с семьей Молли — ее мужем Джоном и сыном-андроидом Итаном? И как это невероятное событие повлияет на ход истории всего человечества? Главную роль в сериале «За пределами» исполнила оскароносная актриса Холли Берри, которая также выступила в качестве исполнительного продюсера вместе со Стивеном Спилбергом.

Релиз от:

Страна: США
Студия: Amblin Television, CBS Television Studios
Продолжительность: 26 x ~ 00:41:00
Перевод: Профессиональный (многоголосый, закадровый) [Аmedia - 1-й Сезон], [LostFilm - 2-й Сезон]

Файл
Формат: AVI
Качество: WEB-DLRip
Видео: XviD, 720x400, ~1800 kbps, 23.976 fps
Звук: AC3, 48.0 KHz, 2 ch, 192 Kbps
Субтитры: Нет

АНОНСЫ ПОПУЛЯРНЫХ РАЗДАЧ


Торрент обновлён, улучшен видеоряд, добавлен 1-й сезон и 13-я серия 2-го сезона!
Complete name : E:KinoZa. Predelami.XviD.WEB-DLRip.GeneralfilmZa. Predelami.S02.2015.XviD.WEB-DLRip.LF.GFZa. Predelami.s02e04.2015.XviD.WEB-DLRip.LF.GF.avi
Format : AVI
Format/Info : Audio Video Interleave
File size : 595 MiB
Duration : 41mn 25s
Overall bit rate : 2 008 Kbps
Writing application : VirtualDubMod 1.5.10.3 | www.virtualdub-fr.org || (build 2550/release)
Writing library : VirtualDubMod build 2550/release

Video
ID : 0
Format : MPEG-4 Visual
Format profile : Advanced Simple@L5
Format settings, BVOP : 2
Format settings, QPel : No
Format settings, GMC : No warppoints
Format settings, Matrix : Default (H.263)
Codec ID : XVID
Codec ID/Hint : XviD
Duration : 41mn 25s
Bit rate : 1 807 Kbps
Width : 720 pixels
Height : 400 pixels
Display aspect ratio : 16:9
Frame rate : 23.976 fps
Color space : YUV
Chroma subsampling : 4:2:0
Bit depth : 8 bits
Scan type : Progressive
Compression mode : Lossy
Bits/(Pixel*Frame) : 0.262
Stream size : 535 MiB (90%)
Writing library : XviD 1.2.1 (UTC 2008-12-04)

Audio
ID : 1
Format : AC-3
Format/Info : Audio Coding 3
Mode extension : CM (complete main)
Format settings, Endianness : Big
Codec ID : 2000
Duration : 41mn 25s
Bit rate mode : Constant
Bit rate : 192 Kbps
Channel(s) : 2 channels
Channel positions : Front: L R
Sampling rate : 48.0 KHz
Compression mode : Lossy
Stream size : 56.9 MiB (10%)
Alignment : Split accross interleaves
Interleave, duration : 42 ms (1.00 video frame)
Interleave, preload duratio : 500 ms



Скачать За.пределами.Существующая.Extant.(сезоны.01-02).(Дэн.Лернер.и.др.).[2014-2015.фантастика.Триллер.Детектив.Драма.WEB-DLRip].[MVO.(Аmedia.LostFilm)].torrent без регистрации
Золото ЗОЛОТАЯ РАЗДАЧА! СКАЧАННОЕ НЕ ЗАСЧИТЫВАЕТСЯ! Золото
Дата: Зарегистрирован   [ Тип: внутренний ] Как тут cкачать?
MAGNET ссылка
MAGNET ссылка


Скачать .torrent

43 KB

Статус: проверено DHT
Скачан: торрент - 2042 раз, раздача полностью - 22 раз
Размер: 15,68 GB
Оценка:  - (Голосов: 0)
Поблагодарили: 2
Поделиться ссылкой на эту раздачу с друзьями:
В контактеFacebookОдноклассникиTwitterLivejournalМой МирLiveinternet
 

 
Показать сообщения:    


Вы не можете начинать темы
Вы не можете отвечать на сообщения
Вы не можете редактировать свои сообщения
Вы не можете удалять свои сообщения
Вы не можете голосовать в опросах
Вы не можете прикреплять файлы к сообщениям
Вы можете скачивать файлы