Loading...
Error

Скачать Война и Мир / War and Peace (сезон 01) (Роберт Дорнхельм) [2007, драма, мелодрама, военный, история, BDRip] [720p] [Dub] торрент без регистрации

 
Статистика раздачи
Размер:  24,46 GB   |    Скачан:  120 раз

Полного источника не было: 29 минут

 
Автор Сообщение

МихаНЕзатор

[] 



Информация о фильме:
Год выпуска: 2007
Жанр: драма, мелодрама, военный, история
Режиссёр: Роберт Дорнхельм

В ролях: Клеманс Поэзи, Алессио Бони, Александр Байер, Малкольм МакДауэлл, Валентина Черви, Виоланте Плачидо и другие...

Описание: Действие фильма переносят зрителя сначала в Россию 1805 года, а затем описывают войну 1812 года. Параллельно с военными событиями фильм освещает различные стороны светской жизни Петербурга и Москвы, российской провинции и стана Наполеоновских войн. Судьбы центральных персонажей коварным образом переплетаются друг с другом, что приводит к неожиданным, порой счастливым, порой трагичным последствиям…



Страна: Италия, Франция, Германия, Россия, Польша
Продолжительность серии: ~1:46:00
Перевод: Профессиональный (полное дублирование)

Информация о файле:
Качество: BDRip 720p
Контейнер: MKV
Видео: H.264, 1280x720, 16:9, 23.976 fps, ~7000 kbps, 0.313 bit/pixel
Аудио Rus: AC3, 48 kHz, 6 ch, 384 kbps |Дубляж R5|
Аудио Eng: AC3, 48 kHz, 6 ch, 640 kbps
Субтитры: отсутствуют

АНОНСЫ ПОПУЛЯРНЫХ РАЗДАЧ
General
Unique ID : 177969788988842654319666150694316433796 (0x85E3BC0D7FEBF252A770167D29F86184)
Complete name : I:War.and.Peace.2007.BDRip.720p.Rus.EngWar.and.Peace.2007.S01E02.BDRip.720p.Rus.Eng.mkv
Format : Matroska
Format version : Version 4 / Version 2
File size : 5.98 GiB
Duration : 1h 45mn
Overall bit rate : 8 089 Kbps
Encoded date : UTC 2015-03-14 07:35:00
Writing application : mkvmerge v7.7.0 ('Six Voices') 64bit built on Feb 28 2015 23:39:33
Writing library : libebml v1.3.1 + libmatroska v1.4.2
DURATION : 01:45:55.392000000
NUMBER_OF_FRAMES : 198606
NUMBER_OF_BYTES : 305058816
_STATISTICS_WRITING_APP : mkvmerge v7.7.0 ('Six Voices') 64bit built on Feb 28 2015 23:39:33
_STATISTICS_WRITING_DATE_UTC : 2015-03-14 07:35:00
_STATISTICS_TAGS : BPS DURATION NUMBER_OF_FRAMES NUMBER_OF_BYTES

Video
ID : 1
Format : AVC
Format/Info : Advanced Video Codec
Format profile : High@L4.1
Format settings, CABAC : Yes
Format settings, ReFrames : 9 frames
Codec ID : V_MPEG4/ISO/AVC
Duration : 1h 45mn
Bit rate : 6 904 Kbps
Width : 1 280 pixels
Height : 720 pixels
Display aspect ratio : 16:9
Frame rate mode : Constant
Frame rate : 23.976 fps
Color space : YUV
Chroma subsampling : 4:2:0
Bit depth : 8 bits
Scan type : Progressive
Bits/(Pixel*Frame) : 0.312
Stream size : 5.11 GiB (85%)
Writing library : x264 core 144 r2525 40bb568
Encoding settings : cabac=1 / ref=9 / deblock=1:-2:-2 / analyse=0x3:0x113 / me=umh / subme=9 / psy=1 / psy_rd=1.00:0.15 / mixed_ref=1 / me_range=32 / chroma_me=1 / trellis=2 / 8x8dct=1 / cqm=0 / deadzone=21,11 / fast_pskip=0 / chroma_qp_offset=-3 / threads=12 / lookahead_threads=3 / sliced_threads=0 / nr=0 / decimate=1 / interlaced=0 / bluray_compat=0 / constrained_intra=0 / bframes=12 / b_pyramid=2 / b_adapt=2 / b_bias=0 / direct=1 / weightb=1 / open_gop=0 / weightp=2 / keyint=250 / keyint_min=23 / scenecut=40 / intra_refresh=0 / rc_lookahead=60 / rc=crf / mbtree=0 / crf=18.0 / qcomp=0.60 / qpmin=0 / qpmax=69 / qpstep=4 / vbv_maxrate=50000 / vbv_bufsize=62500 / crf_max=0.0 / nal_hrd=none / filler=0 / ip_ratio=1.40 / pb_ratio=1.30 / aq=1:1.00
Default : Yes
Forced : No

Audio #1
ID : 2
Format : AC-3
Format/Info : Audio Coding 3
Mode extension : CM (complete main)
Format settings, Endianness : Big
Codec ID : A_AC3
Duration : 1h 45mn
Bit rate mode : Constant
Bit rate : 384 Kbps
Channel(s) : 6 channels
Channel positions : Front: L C R, Side: L R, LFE
Sampling rate : 48.0 KHz
Bit depth : 16 bits
Compression mode : Lossy
Stream size : 291 MiB (5%)
Title : Dub
Language : Russian
Default : Yes
Forced : No

Audio #2
ID : 3
Format : AC-3
Format/Info : Audio Coding 3
Mode extension : CM (complete main)
Format settings, Endianness : Big
Codec ID : A_AC3
Duration : 1h 45mn
Bit rate mode : Constant
Bit rate : 640 Kbps
Channel(s) : 6 channels
Channel positions : Front: L C R, Side: L R, LFE
Sampling rate : 48.0 KHz
Bit depth : 16 bits
Compression mode : Lossy
Stream size : 485 MiB (8%)
Title : Eng
Language : English
Default : No
Forced : No

Menu
00:00:00.000 : en:
00:07:13.558 : en:
00:18:22.140 : en:
00:26:33.716 : en:
00:36:36.443 : en:
00:46:15.064 : en:
00:55:56.810 : en:
01:03:35.310 : en:
01:11:25.487 : en:
01:19:22.173 : en:
01:26:33.396 : en:
01:34:57.108 : en:
01:42:51.121 : en:



Скачать Война.и.Мир.War.and.Peace.(сезон.01).(Роберт.Дорнхельм).[2007.драма.мелодрама.военный.история.BDRip].[720p].[Dub].torrent без регистрации
Золото ЗОЛОТАЯ РАЗДАЧА! СКАЧАННОЕ НЕ ЗАСЧИТЫВАЕТСЯ! Золото
Дата: Зарегистрирован   [ Тип: внутренний ] Как тут cкачать?
MAGNET ссылка
MAGNET ссылка


Скачать .torrent

123 KB

Статус: проверено DHT
Скачан: торрент - 120 раз, раздача полностью - 7 раз
Размер: 24,46 GB
Оценка:  - (Голосов: 0)
Поблагодарили: 0
Поделиться ссылкой на эту раздачу с друзьями:
В контактеFacebookОдноклассникиTwitterLivejournalМой МирLiveinternet
 

 
Показать сообщения:    


Вы не можете начинать темы
Вы не можете отвечать на сообщения
Вы не можете редактировать свои сообщения
Вы не можете удалять свои сообщения
Вы не можете голосовать в опросах
Вы не можете прикреплять файлы к сообщениям
Вы можете скачивать файлы