Loading...
Error

Скачать Волчонок / Teen Wolf (Род Дэниэл) [1985, фэнтези, мелодрама, комедия, BDRip-AVC] [MVO]+[AVO] торрент без регистрации

 
Статистика раздачи
Размер:  3,17 GB   |    Скачан:  84 раза
Сидов:  1  [  0 KB/s  ]  
 
Автор Сообщение

Marsianka

[] 

Название: Волчонок
Оригинальное название: Teen Wolf
Год выпуска: 1985
Жанр: фэнтези, мелодрама, комедия
Выпущено: США, Wolfkill
Режиссер: Род Дэниэл
В ролях: Майкл Дж. Фокс, Джеймс Хэмптон, Сьюзэн Урситти, Джерри Ливайн, Мэтт Адлер, Лори Гриффин, Джим МакКрелл, Марк Арнольд

О фильме: Знаете легенды об оборотнях? Страх и ужас! Конечно, Скотти испугался, увидев однажды в зеркале вместо своей симпатичной рожицы нечто лохматое и волосатое. Но папа успокоил парня - это наследственное: к тому же кусать никого не обязательно. Вскоре выяснилось, что быть волчонком очень удобно и принимать человеческий облик теперь вроде уже ни к чему...



Качество: BDRip-AVC
Видео: x264; High@L4.0; 1076x584 (16:9); ~4332 kbps; 23.976 fps; 0.282 b/px
Аудио#1: Русский (MVO); AC3; CBR 192 kbps; 2 ch; 48 kHz
Аудио#2: Русский (AVO; Визгунов); AC3; CBR 192 kbps; 2 ch; 48 kHz
Аудио#3: Английский; AC3 CBR 192 kbps; 2 ch; 48 kHz
Format : Matroska
File size : 3.17 GiB
Duration : 1h 32mn
Overall bit rate : 4 911 Kbps
Encoded date : UTC 2011-05-05 13:27:12
Writing application : mkvmerge v4.0.0 ('The Stars were mine') built on Jun 6 2010 16:18:42
Writing library : libebml v1.0.0 + libmatroska v1.0.0

Video
ID : 1
Format : AVC
Format/Info : Advanced Video Codec
Format profile : High@L4.0
Format settings, CABAC : Yes
Format settings, ReFrames : 10 frames
Codec ID : V_MPEG4/ISO/AVC
Duration : 1h 32mn
Bit rate : 4 237 Kbps
Width : 1 076 pixels
Height : 584 pixels
Display aspect ratio : 16:9
Frame rate : 23.976 fps
Color space : YUV
Chroma subsampling : 4:2:0
Bit depth : 8 bits
Scan type : Progressive
Bits/(Pixel*Frame) : 0.281
Stream size : 2.73 GiB (86%)
Title : Волчонок / Teen Wolf - by Juicy_J - x264; High@L4.0; 1076x584 (16:9); ~4332 kbps; 23.976 fps; 0.282 b/px
Writing library : x264 core 115 r1947 b5a8ad7
Encoding settings : cabac=1 / ref=10 / deblock=1:-3:-3 / analyse=0x3:0x113 / me=umh / subme=10 / psy=1 / psy_rd=1.25:0.00 / mixed_ref=1 / me_range=40 / chroma_me=1 / trellis=2 / 8x8dct=1 / cqm=0 / deadzone=21,11 / fast_pskip=1 / chroma_qp_offset=-2 / threads=12 / sliced_threads=0 / nr=0 / decimate=1 / interlaced=0 / bluray_compat=0 / constrained_intra=0 / bframes=8 / b_pyramid=2 / b_adapt=2 / b_bias=0 / direct=3 / weightb=1 / open_gop=0 / weightp=2 / keyint=250 / keyint_min=23 / scenecut=40 / intra_refresh=0 / rc=crf / mbtree=0 / crf=19.0 / qcomp=0.65 / qpmin=0 / qpmax=69 / qpstep=4 / ip_ratio=1.40 / pb_ratio=1.30 / aq=1:1.00
Language : English
Matrix coefficients : BT.709-5, BT.1361, IEC 61966-2-4 709, SMPTE RP177

Audio #1
ID : 2
Format : AC-3
Format/Info : Audio Coding 3
Mode extension : CM (complete main)
Codec ID : A_AC3
Duration : 1h 32mn
Bit rate mode : Constant
Bit rate : 192 Kbps
Channel(s) : 2 channels
Channel positions : Front: L R
Sampling rate : 48.0 KHz
Bit depth : 16 bits
Compression mode : Lossy
Stream size : 127 MiB (4%)
Title : Русский (MVO); AC3; CBR 192 kbps; 2 ch; 48 kHz
Language : Russian

Audio #2
ID : 3
Format : AC-3
Format/Info : Audio Coding 3
Mode extension : CM (complete main)
Codec ID : A_AC3
Duration : 1h 32mn
Bit rate mode : Constant
Bit rate : 192 Kbps
Channel(s) : 2 channels
Channel positions : Front: L R
Sampling rate : 48.0 KHz
Bit depth : 16 bits
Compression mode : Lossy
Stream size : 127 MiB (4%)
Title : Русский (AVO; Визгунов); AC3; CBR 192 kbps; 2 ch; 48 kHz
Language : Russian

Audio #3
ID : 4
Format : AC-3
Format/Info : Audio Coding 3
Mode extension : CM (complete main)
Codec ID : A_AC3
Duration : 1h 32mn
Bit rate mode : Constant
Bit rate : 192 Kbps
Channel(s) : 2 channels
Channel positions : Front: L R
Sampling rate : 48.0 KHz
Bit depth : 16 bits
Compression mode : Lossy
Stream size : 127 MiB (4%)
Title : Английский; AC3 CBR 192 kbps; 2 ch; 48 kHz
Language : English

Text #1
ID : 5
Format : UTF-8
Codec ID : S_TEXT/UTF8
Codec ID/Info : UTF-8 Plain Text
Title : Английские SDH
Language : English

Text #2
ID : 6
Format : UTF-8
Codec ID : S_TEXT/UTF8
Codec ID/Info : UTF-8 Plain Text
Title : Испанские
Language : Spanish

Text #3
ID : 7
Format : UTF-8
Codec ID : S_TEXT/UTF8
Codec ID/Info : UTF-8 Plain Text
Title : Французские
Language : French

Menu
00:00:00.000 : en:00:00:00.000
00:04:55.545 : en:00:04:55.545
00:14:32.872 : en:00:14:32.872
00:19:19.617 : en:00:19:19.617
00:22:56.500 : en:00:22:56.500
00:29:29.726 : en:00:29:29.726
00:35:16.114 : en:00:35:16.114
00:39:57.812 : en:00:39:57.812
00:42:29.380 : en:00:42:29.380
00:45:31.020 : en:00:45:31.020
00:54:03.657 : en:00:54:03.657
00:57:08.550 : en:00:57:08.550
00:59:48.710 : en:00:59:48.710
01:05:27.966 : en:01:05:27.966
01:14:35.471 : en:01:14:35.471
01:25:20.073 : en:01:25:20.073



Скачать Волчонок.Teen.Wolf.(Род.Дэниэл).[1985.фэнтези.мелодрама.комедия.BDRip-AVC].[MVO]+[AVO].torrent без регистрации
Золото ЗОЛОТАЯ РАЗДАЧА! СКАЧАННОЕ НЕ ЗАСЧИТЫВАЕТСЯ! Золото
Дата: Зарегистрирован   [ Тип: внутренний ] Как тут cкачать?
MAGNET ссылка
MAGNET ссылка


Скачать .torrent

32 KB

Статус: проверено DHT
Скачан: торрент - 84 раз, раздача полностью - 5 раз
Размер: 3,17 GB
Оценка:  - (Голосов: 0)
Поблагодарили: 1
Поделиться ссылкой на эту раздачу с друзьями:
В контактеFacebookОдноклассникиTwitterLivejournalМой МирLiveinternet
 

 
Показать сообщения:    


Вы не можете начинать темы
Вы не можете отвечать на сообщения
Вы не можете редактировать свои сообщения
Вы не можете удалять свои сообщения
Вы не можете голосовать в опросах
Вы не можете прикреплять файлы к сообщениям
Вы можете скачивать файлы