Loading...
Error

Скачать Ночные ястребы / Nighthawks (Брюс Мэлмат, Гэри Нельсон) [1981, боевик, триллер, криминал, HDTVRip] [MVO]+[AVO] торрент без регистрации

 
Статистика раздачи
Размер:  1,46 GB   |    Скачан:  84 раза

Полного источника не было: 24 минуты

 
Автор Сообщение

Marsianka

[] 

Информация о фильме
Название: Ночные ястребы
Оригинальное название: Nighthawks
Год выхода: 1981
Жанр: боевик, триллер, криминал
Режиссер: Брюс Мэлмат, Гэри Нельсон
В ролях: Сильвестр Сталлоне, Билли Ди Уильямс, Линдсэй Вагнер, Персис Хамбатта, Найджел Дэвенпорт, Рутгер Хауэр, Хилари Томпсон, Джо Спинелл, Уолтер Мэтьюз, Э. Брайан Дин

О фильме:
Отчаянный сержант нью-йоркской полиции Дик Де Сильва привык ловить преступников в экстремальной ситуации «на живца», в роли которого всегда выступал он сам. Но «адреналиновой» службе приходит конец, после того, как героя переводят во вновь созданное антитеррористическое подразделение. Однако скучать в новой должности Де Сильве не пришлось. В Нью-Йорке объявился самый разыскиваемой террорист на Земле — безжалостный убийца Хеймар Райнхардт, известный всему миру, как Вульфгар, который захватывает заложников прямо в воздухе, в вагончике фуникулера, следующего на Рузвельт — Айленд. Теперь самый бесстрашный коп должен будет сразиться с самым жестоким террористом!



Страна: США
Студия: Universal Pictures, Martin Poll Productions, The Production Company
Продолжительность: 01:35:07
Перевод: Профессиональный (многоголосый закадровый), Авторский (одноголосый закадровый) А.Михалев

Файл
Кодек: XviD
Качество: HDTVRip с HDTV |1080i|
Видео: 704x384, 25.000 fps, XviD build 73 ~1798 kbps
Аудио 1: 48 kHz, AC3, 2 ch, ~192 kbps.....Профессиональный (многоголосый закадровый)
Аудио 2: 48 kHz, AC3, 2 ch, ~192 kbps.....Авторский (одноголосый закадровый) А.Михалев
Общее
Полное имя : Nighthawks.1981.HDTVRip.avi
Формат : AVI
Формат/Информация : Audio Video Interleave
Размер файла : 1,46 Гбайт
Продолжительность : 1 ч. 35 м.
Общий поток : 2197 Кбит/сек
Программа кодирования : VirtualDubMod 1.5.10.2 (build 2542/release)
Библиотека кодирования : VirtualDubMod build 2542/release

Видео
Идентификатор : 0
Формат : MPEG-4 Visual
Профиль формата : Advanced Simple@L5
Параметр BVOP формата : 1
Параметр QPel формата : Нет
Параметр GMC формата : Без точки перехода
Параметр матрицы формата : Выборочная
Идентификатор кодека : XVID
Идентификатор кодека/Подсказка : XviD
Продолжительность : 1 ч. 35 м.
Битрейт : 1798 Кбит/сек
Ширина : 704 пикс.
Высота : 384 пикс.
Соотношение сторон : 16:9
Частота кадров : 25,000 кадр/сек
Цветовое пространство : YUV
Подвыборка цветности : 4:2:0
Битовая глубина : 8 бит
Тип развёртки : Прогрессивная
Метод сжатия : С потерями
Бит/(Пиксели*Кадры) : 0.266
Размер потока : 1,19 Гбайт (82%)
Библиотека кодирования : XviD 73

Аудио #1
Идентификатор : 1
Формат : AC-3
Формат/Информация : Audio Coding 3
Расширение режима : CM (complete main)
Идентификатор кодека : 2000
Продолжительность : 1 ч. 35 м.
Вид битрейта : Постоянный
Битрейт : 192 Кбит/сек
Канал(ы) : 2 канала(ов)
Расположение каналов : Front: L R
Частота : 48,0 КГц
Битовая глубина : 16 бит
Метод сжатия : С потерями
Размер потока : 131 Мбайт (9%)
Выравнивание : Разделение по промежуткам
Продолжительность промежутка : 40 мс. (1,00 видеокадр)
Время предзагрузки промежутка : 500 ms

Аудио #2
Идентификатор : 2
Формат : AC-3
Формат/Информация : Audio Coding 3
Расширение режима : CM (complete main)
Идентификатор кодека : 2000
Продолжительность : 1 ч. 35 м.
Вид битрейта : Постоянный
Битрейт : 192 Кбит/сек
Канал(ы) : 2 канала(ов)
Расположение каналов : Front: L R
Частота : 48,0 КГц
Битовая глубина : 16 бит
Метод сжатия : С потерями
Размер потока : 131 Мбайт (9%)
Выравнивание : Разделение по промежуткам
Продолжительность промежутка : 40 мс. (1,00 видеокадр)
Время предзагрузки промежутка : 500 ms



Скачать Ночные.ястребы.Nighthawks.(Брюс.Мэлмат.Гэри.Нельсон).[1981.боевик.триллер.криминал.HDTVRip].[MVO]+[AVO].torrent без регистрации
Золото ЗОЛОТАЯ РАЗДАЧА! СКАЧАННОЕ НЕ ЗАСЧИТЫВАЕТСЯ! Золото
Дата: Зарегистрирован   [ Тип: внутренний ] Как тут cкачать?
MAGNET ссылка
MAGNET ссылка


Скачать .torrent

15 KB

Статус: проверено DHT
Скачан: торрент - 84 раз, раздача полностью - 7 раз
Размер: 1,46 GB
Оценка:  - (Голосов: 0)
Поблагодарили: 0
Поделиться ссылкой на эту раздачу с друзьями:
В контактеFacebookОдноклассникиTwitterLivejournalМой МирLiveinternet
 

 
Показать сообщения:    


Вы не можете начинать темы
Вы не можете отвечать на сообщения
Вы не можете редактировать свои сообщения
Вы не можете удалять свои сообщения
Вы не можете голосовать в опросах
Вы не можете прикреплять файлы к сообщениям
Вы можете скачивать файлы