Loading...
Error

Скачать Комедия ужасов / The Comedy of Terrors (Жак Турнье) [1964, комедия, ужасы, HDTVRip] [DVO] торрент без регистрации

 
Статистика раздачи
Размер:  1,42 GB   |    Скачан:  68 раз
Сидов:  1  [  0 KB/s  ]  
 
Автор Сообщение

Marsianka

[] 

Информация о фильме
Название: Комедия ужасов
Оригинальное название: The Comedy of Terrors
Жанр: комедия, ужасы
Год выхода: 1964
Режиссёр: Жак Турнье
В ролях: Винсент Прайс, Питер Лорре, Борис Карлофф, Джойс Джеймсон, Джо Е. Браун, Беверли Пауэрс

О фильме: Владельца похоронного бюро, у которого долгое время не было «клиентов», вынуждают заплатить арендную плату за год. Чтобы достать деньги, он начинает убивать людей, и дела у его конторы начинают идти лучше.



Выпущено: США / American International Pictures (AIP)
Продолжительность: 01:23:08
Перевод: Профессиональный (двухголосый закадровый) НТВ+

Файл
Формат: AVI
Качество: HDTVRip [Исходник 1080i]
Видео: 720x304 (2.37:1), 25 fps, XviD build 50 ~2361 kbps avg, 0.43 bit/pixel
Аудио: 48 kHz, AC3 Dolby Digital, 2/0 (L,R) ch, ~192 kbps

Семпл
Комедия ужасов - The Comedy of Terrors [Rip by Ledy_X].avi
Format : AVI
Format/Info : Audio Video Interleave
File size : 1.42 GiB
Duration : 1h 19mn
Overall bit rate : 2 563 Kbps
Movie name : Комедия ужасов - The Comedy of Terrors [Rip by Ledy_X]
Director : Rip by Ledy_X

Video
ID : 0
Format : MPEG-4 Visual
Format profile : Advanced Simple@L5
Format settings, BVOP : 1
Format settings, QPel : No
Format settings, GMC : No warppoints
Format settings, Matrix : Default (MPEG)
Codec ID : XVID
Codec ID/Hint : XviD
Duration : 1h 19mn
Bit rate : 2 362 Kbps
Width : 720 pixels
Height : 304 pixels
Display aspect ratio : 2.35:1
Frame rate : 25.000 fps
Color space : YUV
Chroma subsampling : 4:2:0
Bit depth : 8 bits
Scan type : Progressive
Compression mode : Lossy
Bits/(Pixel*Frame) : 0.432
Stream size : 1.31 GiB (92%)
Writing library : XviD 1.2.1 (UTC 2008-12-04)

Audio
ID : 1
Format : AC-3
Format/Info : Audio Coding 3
Mode extension : CM (complete main)
Format settings, Endianness : Big
Codec ID : 2000
Duration : 1h 19mn
Bit rate mode : Constant
Bit rate : 192 Kbps
Channel(s) : 2 channels
Channel positions : Front: L R
Sampling rate : 48.0 KHz
Bit depth : 16 bits
Compression mode : Lossy
Stream size : 109 MiB (7%)
Alignment : Split accross interleaves
Interleave, duration : 40 ms (1.00 video frame)
Interleave, preload duration : 500 ms
Релиз:



Скачать Комедия.ужасов.The.Comedy.of.Terrors.(Жак.Турнье).[1964.комедия.ужасы.HDTVRip].[DVO].torrent без регистрации
Золото ЗОЛОТАЯ РАЗДАЧА! СКАЧАННОЕ НЕ ЗАСЧИТЫВАЕТСЯ! Золото
Дата: Зарегистрирован   [ Тип: внутренний ] Как тут cкачать?
MAGNET ссылка
MAGNET ссылка


Скачать .torrent

15 KB

Статус: проверено DHT
Скачан: торрент - 68 раз, раздача полностью - 9 раз
Размер: 1,42 GB
Оценка:  - (Голосов: 0)
Поблагодарили: 0
Поделиться ссылкой на эту раздачу с друзьями:
В контактеFacebookОдноклассникиTwitterLivejournalМой МирLiveinternet
 

 
Показать сообщения:    


Вы не можете начинать темы
Вы не можете отвечать на сообщения
Вы не можете редактировать свои сообщения
Вы не можете удалять свои сообщения
Вы не можете голосовать в опросах
Вы не можете прикреплять файлы к сообщениям
Вы можете скачивать файлы