Loading...
Error

Скачать Момент безрассудства / The Reckless Momenty (Макс Офюльс) [1949, фильм-нуар, драма, DVDRip] [VO]+[Оригинал] торрент без регистрации

 
Статистика раздачи
Размер:  770 MB   |    Скачан:  71 раз
Сидов:  1  [  0 KB/s  ]  
 
Автор Сообщение

Marsianka

[] 

Информация о фильме
Название: Момент безрассудства
Оригинальное название: The Reckless Momenty
Год выхода: 1949
Жанр: фильм-нуар, драма
Режиссер: Макс Офюльс
В ролях: Джеймс Мейсон, Джоан Беннетт, Джеральдин Брукс, Генри О’Нилл, Шепперд Страдвик, Дэвид Баир, Рой Робертс, Уильям Шэллерт, Энн Шоумэйкер, Билли Снайдер, Джесси Арнольд, Джек Бэйкер, Пэт Бартон

О фильме:
Домохозяйка Люсия Харпер обнаруживает труп мужчины, с которым встречалась ее дочь. Люсия убеждена, что это её дочь по неосторожности убила своего бывшего возлюбленного. Она не знает, что предпринять и всячески старается спрятать труп, чтобы избежать скандала. Возмездие является в лице ирландца-подонка Мартина Доннелли, который собирается ее шантажировать, но неожиданно влюбляется и делает попытки сближения...



Страна: США
Продолжительность: 01:18:41
Перевод: Любительский (одноголосый, закадровый)

Файл
Кодек: XviD
Качество: DVDRip | L1
Видео: 528x400 (4:3), 23.976 fps, 1102 Kbps
Аудио 1: MP3, 48.0 KHz, 2 ch., 128 Kbps (русский одноголосый закадровый перевод) - Юрий Медведев
Аудио 2: MP3, 48.0 KHz, 2 ch., 128 Kbps (оригинальная английская звуковая дорожка, лежит отдельно)
Семпл
AVI-файл:
Общее
Полное имя : K:раздачиThe Reckless Moment 1949 700MBThe Reckless Moment.avi
Формат : AVI
Формат/Информация : Audio Video Interleave
Размер файла : 698 Мбайт
Продолжительность : 1 ч. 18 м.
Общий поток : 1240 Кбит/сек
Программа кодирования : VirtualDubMod 1.5.10.3 | www.virtualdub-fr.org || (build 2550/release)
Библиотека кодирования : VirtualDubMod build 2550/release

Видео
Идентификатор : 0
Формат : MPEG-4 Visual
Профиль формата : Advanced Simple@L5
Параметр BVOP формата : 2
Параметр QPel формата : Нет
Параметр GMC формата : Без точки перехода
Параметр матрицы формата : Default (H.263)
Идентификатор кодека : DX50
Идентификатор кодека/Подсказка : DivX 5
Продолжительность : 1 ч. 18 м.
Битрейт : 1102 Кбит/сек
Ширина : 528 пикселей
Высота : 400 пикселей
Соотношение сторон : 4:3
Частота кадров : 25,000 кадров/сек
Цветовое пространство : YUV
Субдискретизация насыщенности : 4:2:0
Битовая глубина : 8 бит
Тип развёртки : Прогрессивная
Метод сжатия : С потерями
Бит/(Пиксели*Кадры) : 0.209
Размер потока : 620 Мбайт (89%)
Библиотека кодирования : XviD 73

Аудио
Идентификатор : 1
Формат : MPEG Audio
Версия формата : Version 1
Профиль формата : Layer 3
Идентификатор кодека : 55
Идентификатор кодека/Подсказка : MP3
Продолжительность : 1 ч. 18 м.
Вид битрейта : Постоянный
Битрейт : 128 Кбит/сек
Каналы : 2 канала
Частота : 48,0 КГц
Метод сжатия : С потерями
Размер потока : 72,0 Мбайт (10%)
Выравнивание : Соединение по промежуткам
Продолжительность промежутка : 40 мс. (1,00 видеокадр)
Время предзагрузки промежутка : 504 мс.
Библиотека кодирования : LAME3.99r
Настройки программы : -m s -V 4 -q 0 -lowpass 17 -b 128

английская оригинальная дорожка, лежит отдельно:
Общее
Полное имя : K:раздачиThe Reckless Moment 1949 700MBThe Reckless Moment.ENG.mp3
Формат : MPEG Audio
Размер файла : 72,0 Мбайт
Продолжительность : 1 ч. 18 м.
Режим общего битрейта : Постоянный
Общий поток : 128 Кбит/сек
Библиотека кодирования : LAME3.99r

Аудио
Формат : MPEG Audio
Версия формата : Version 1
Профиль формата : Layer 3
Продолжительность : 1 ч. 18 м.
Вид битрейта : Постоянный
Битрейт : 128 Кбит/сек
Каналы : 2 канала
Частота : 48,0 КГц
Метод сжатия : С потерями
Размер потока : 72,0 Мбайт (100%)
Библиотека кодирования : LAME3.99r
Настройки программы : -m s -V 4 -q 0 -lowpass 17 -b 128



Скачать Момент.безрассудства.The.Reckless.Momenty.(Макс.Офюльс).[1949.фильм-нуар.драма.DVDRip].[VO]+[Оригинал].torrent без регистрации
Золото ЗОЛОТАЯ РАЗДАЧА! СКАЧАННОЕ НЕ ЗАСЧИТЫВАЕТСЯ! Золото
Дата: Зарегистрирован   [ Тип: внутренний ] Как тут cкачать?
MAGNET ссылка
MAGNET ссылка


Скачать .torrent

16 KB

Статус: проверено DHT
Скачан: торрент - 71 раз, раздача полностью - 0 раз
Размер: 770 MB
Оценка:  - (Голосов: 0)
Поблагодарили: 0
Поделиться ссылкой на эту раздачу с друзьями:
В контактеFacebookОдноклассникиTwitterLivejournalМой МирLiveinternet
 

 
Показать сообщения:    


Вы не можете начинать темы
Вы не можете отвечать на сообщения
Вы не можете редактировать свои сообщения
Вы не можете удалять свои сообщения
Вы не можете голосовать в опросах
Вы не можете прикреплять файлы к сообщениям
Вы можете скачивать файлы