Loading...
Error

Скачать Готова на всё / Malice (Хэролд Беккер) [1993, триллер, криминал, детектив, BDRip-AVC] [DVO]x5+[AVO]+[Sub]x2 торрент без регистрации

 
Статистика раздачи
Размер:  3,56 GB   |    Скачан:  125 раз

Полного источника не было: 25 минут

 
Автор Сообщение

Marsianka

[] 

Готова на всё
| Malice |


Информация о фильме
Название: Готова на всё / Зло
Оригинальное название: Malice
Год выхода: 1993
Жанр: триллер, криминал, детектив
Режиссер: Хэролд Беккер
В ролях: Алек Болдуин, Николь Кидман, Билл Пуллман, Биби Нойуэрт, Гвинет Пэлтроу, Дэвид Боуи, Джозеф Соммер

О фильме:
На фоне тихой жизни городка при колледже в Новой Англии разворачиваются леденящие души события, необратимо вовлекая в запутанный узел интриг и предательства преуспевающего хирурга, очаровательного покорителя женских сердец, молодого профессора колледжа и его красавицу жену. В этом непредсказуемом фильме лихих поворотов сюжета больше, чем в самом запутанном лабиринте...



Страна: США, Канада
Студия: Castle Rock Entertainment, Nelvana Limited, New Line Cinema
Продолжительность: 01:46:52
Перевод: Профессиональный двухголосый, авторский

Файл
Кодек: h.264
Качество: BDRip-AVC
Видео: 3418 Кбит/с, 1024x556, 23.976 кадр/с

• №1: Русский (AC3, 2 ch, 192 Кбит/с) Профессиональный двухголосый [R5]
• №2: Русский (AC3, 2 ch, 192 Кбит/с) Авторский [Андрей Гаврилов]
• №3: Английский (AC3, 2 ch, 192 Кбит/с)
Отдельно:
• №4: Русский (AC3, 2 ch, 192 Кбит/с) Профессиональный двухголосый [Екатеринбург Арт]
• №5: Русский (AC3, 2 ch, 192 Кбит/с) Профессиональный двухголосый [НТВ+]
• №6: Русский (AC3, 2 ch, 192 Кбит/с) Профессиональный двухголосый [ТВ-6]
• №7: Украинский (AC3, 2 ch, 192 Кбит/с) Профессиональный двухголосый [KIHO]

Субтитры: Русские, английские

Полное имя : Malice.1993.x264.BDRip-AVC.0ptimus.mkv
Формат : Matroska
Версия формата : Version 2
Размер файла : 2,98 Гбайт
Продолжительность : 1 ч. 46 м.
Общий поток : 3997 Кбит/сек
Название фильма : Готова на всё / Зло | Malice [1993] -= BDRip (AVC) by 0ptimus =-
Дата кодирования : UTC 2015-07-07 13:35:04
Программа кодирования : mkvmerge v6.6.0 ('The Edge Of The In Between') built on Dec 1 2013 17:55:00
Библиотека кодирования : libebml v1.3.0 + libmatroska v1.4.1

Видео
Идентификатор : 1
Формат : AVC
Формат/Информация : Advanced Video Codec
Профиль формата : High@L4.1
Параметр CABAC формата : Да
Параметр ReFrames формата : 9 кадров
Идентификатор кодека : V_MPEG4/ISO/AVC
Продолжительность : 1 ч. 46 м.
Битрейт : 3418 Кбит/сек
Ширина : 1024 пикселя
Высота : 556 пикселей
Соотношение сторон : 1,85:1
Режим частоты кадров : Постоянный
Частота кадров : 23,976 кадра/сек
Цветовое пространство : YUV
Субдискретизация насыщенности : 4:2:0
Битовая глубина : 8 бит
Тип развёртки : Прогрессивная
Бит/(Пиксели*Кадры) : 0.250
Размер потока : 2,49 Гбайт (84%)
Заголовок : Rip by 0ptimus
Библиотека кодирования : x264 core 133 r2334 a3ac64b
Настройки программы : cabac=1 / ref=9 / deblock=1:-3:-3 / analyse=0x3:0x113 / me=umh / subme=11 / psy=1 / psy_rd=1.00:0.20 / mixed_ref=1 / me_range=48 / chroma_me=1 / trellis=2 / 8x8dct=1 / cqm=0 / deadzone=21,11 / fast_pskip=0 / chroma_qp_offset=-3 / threads=3 / lookahead_threads=1 / sliced_threads=0 / nr=0 / decimate=0 / interlaced=0 / bluray_compat=0 / constrained_intra=0 / bframes=12 / b_pyramid=2 / b_adapt=2 / b_bias=0 / direct=3 / weightb=1 / open_gop=0 / weightp=2 / keyint=240 / keyint_min=23 / scenecut=40 / intra_refresh=0 / rc_lookahead=40 / rc=2pass / mbtree=0 / bitrate=3418 / ratetol=1.0 / qcomp=0.60 / qpmin=0 / qpmax=69 / qpstep=4 / cplxblur=20.0 / qblur=0.5 / vbv_maxrate=50000 / vbv_bufsize=50000 / nal_hrd=none / ip_ratio=1.40 / pb_ratio=1.30 / aq=1:1.00
Язык : English
Default : Да
Forced : Да

Аудио #1
Идентификатор : 2
Формат : AC-3
Формат/Информация : Audio Coding 3
Расширение режима : CM (complete main)
Параметр Endianness формата : Big
Идентификатор кодека : A_AC3
Продолжительность : 1 ч. 46 м.
Вид битрейта : Постоянный
Битрейт : 192 Кбит/сек
Каналы : 2 канала
Расположение каналов : Front: L R
Частота : 48,0 КГц
Битовая глубина : 16 бит
Метод сжатия : С потерями
Размер потока : 147 Мбайт (5%)
Заголовок : Двухголосый [R5] AC3 2.0 @ 192 kbps
Язык : Russian
Default : Да
Forced : Да

Аудио #2
Идентификатор : 3
Формат : AC-3
Формат/Информация : Audio Coding 3
Расширение режима : CM (complete main)
Параметр Endianness формата : Big
Идентификатор кодека : A_AC3
Продолжительность : 1 ч. 46 м.
Вид битрейта : Постоянный
Битрейт : 192 Кбит/сек
Каналы : 2 канала
Расположение каналов : Front: L R
Частота : 48,0 КГц
Битовая глубина : 16 бит
Метод сжатия : С потерями
Размер потока : 147 Мбайт (5%)
Заголовок : Авторский [Андрей Гаврилов] AC3 2.0 @ 192 kbps
Язык : Russian
Default : Нет
Forced : Нет

Аудио #3
Идентификатор : 4
Формат : AC-3
Формат/Информация : Audio Coding 3
Расширение режима : CM (complete main)
Параметр Endianness формата : Big
Идентификатор кодека : A_AC3
Продолжительность : 1 ч. 46 м.
Вид битрейта : Постоянный
Битрейт : 192 Кбит/сек
Каналы : 2 канала
Расположение каналов : Front: L R
Частота : 48,0 КГц
Битовая глубина : 16 бит
Метод сжатия : С потерями
Размер потока : 147 Мбайт (5%)
Заголовок : AC3 2.0 @ 192 kbps
Язык : English
Default : Нет
Forced : Нет

Текст #1
Идентификатор : 5
Формат : UTF-8
Идентификатор кодека : S_TEXT/UTF8
Идентификатор кодека/Информация : UTF-8 Plain Text
Язык : Russian
Default : Нет
Forced : Нет

Текст #2
Идентификатор : 6
Формат : UTF-8
Идентификатор кодека : S_TEXT/UTF8
Идентификатор кодека/Информация : UTF-8 Plain Text
Язык : Russian
Default : Нет
Forced : Нет

Меню
00:00:00.000 : :Chapter 01
00:15:46.737 : :Chapter 02
00:27:36.237 : :Chapter 03
00:47:04.947 : :Chapter 04
01:00:57.362 : :Chapter 05
01:09:23.325 : :Chapter 06
01:24:18.428 : :Chapter 07
01:33:49.040 : :Chapter 08
Релиз от:



Скачать Готова.на.всё.Malice.(Хэролд.Беккер).[1993.триллер.криминал.детектив.BDRip-AVC].[DVO]x5+[AVO]+[Sub]x2.torrent без регистрации
Золото ЗОЛОТАЯ РАЗДАЧА! СКАЧАННОЕ НЕ ЗАСЧИТЫВАЕТСЯ! Золото
Дата: Зарегистрирован   [ Тип: внутренний ] Как тут cкачать?
MAGNET ссылка
MAGNET ссылка


Скачать .torrent

37 KB

Статус: проверено DHT
Скачан: торрент - 125 раз, раздача полностью - 0 раз
Размер: 3,56 GB
Оценка:  - (Голосов: 0)
Поблагодарили: 1
Поделиться ссылкой на эту раздачу с друзьями:
В контактеFacebookОдноклассникиTwitterLivejournalМой МирLiveinternet
 

 
Показать сообщения:    


Вы не можете начинать темы
Вы не можете отвечать на сообщения
Вы не можете редактировать свои сообщения
Вы не можете удалять свои сообщения
Вы не можете голосовать в опросах
Вы не можете прикреплять файлы к сообщениям
Вы можете скачивать файлы