Loading...
Error

Скачать Розовый телефон / Le telephone rose (Эдуар Молинаро) [1975, драма, комедия, BDRip AVC] [MVO]+[Оригинал] торрент без регистрации

 
Статистика раздачи
Размер:  2,34 GB   |    Скачан:  106 раз
Сидов:  1  [  0 KB/s  ]  
 
Автор Сообщение

Marsianka

[] 

Название: Розовый телефон
Оригинальное название: Le telephone rose
Год выпуска: 1975
Страна: Франция
Жанр: драма, комедия
Продолжительность: 01:28:56
Перевод: профессиональный многоголосый

Режиссёр: Эдуар Молинаро

В ролях: Мирей Дарк, Пьер Монди, Франсуаз Прево, Микаэль Лонсдаль, Даниэль Секкальди, Жерар Эрольд, Андре Валарди, Робер Дальбан, Люсьенн Легран, Пьер Магелон

Описание: Бенуа, уже далеко не молодой владелец небольшого заводика в провинции, вынужден под напором конкуренции продаться американской фирме, возглавляемой героем Лонсдаля. Бенуа старомоден во всём, рабочие «ездят» на нём, как хотят. Он же сколотил из них регбийную команду и носится по полю что есть силы. По сути завод является частью его семьи. Но времена уже давно не те. И он едет в Париж на встречу с американцами. А там знакомится с весьма импозантной дамой Кристин и даже проводит с ней ночь. Влюбившись по уши на старости лет, он на радостях подмахивает невыгодный контракт словно в дурмане. Позже оказывается, что Кристин — элитная проститутка, специально нанятая американцами. Для Бенуа это становится шоком, но эта встреча для них обоих оказывается не последней...



Качество: BDRip AVC Сравнение с исходником
Формат: MKV
Видео: MPEG-4 AVC, 2664 Кбит/с, 956x576, 24 кадра/с
Аудио 1: русский, AC3, 384 kbps, 2 ch, 48 kHz [профессиональный многоголосый]
Аудио 2: французский, AC3, 448 kbps, 2 ch, 48 kHz [оригинал]
Общее
Уникальный идентификатор : 252539912831239780980168275709777493821 (0xBDFD6B03D90922B3BF0B205D52ED3F3D)
Полное имя : D:VideoРозовый телефон.1975.BDRip.AVC.mkv
Формат : Matroska
Версия формата : Version 4 / Version 2
Размер файла : 2,34 Гбайт
Продолжительность : 1 ч. 33 м.
Общий поток : 3567 Кбит/сек
Название фильма : BDRip -- STarankov
Дата кодирования : UTC 2015-07-08 05:13:36
Программа кодирования : mkvmerge v7.9.0 ('Birds') 64bit
Библиотека кодирования : libebml v1.3.1 + libmatroska v1.4.2
DURATION : 01:33:46.272000000
NUMBER_OF_FRAMES : 175821
NUMBER_OF_BYTES : 315071232
_STATISTICS_WRITING_APP : mkvmerge v7.9.0 ('Birds') 64bit
_STATISTICS_WRITING_DATE_UTC : 2015-07-08 05:13:36
_STATISTICS_TAGS : BPS DURATION NUMBER_OF_FRAMES NUMBER_OF_BYTES

Видео
Идентификатор : 1
Формат : AVC
Формат/Информация : Advanced Video Codec
Профиль формата : High@L4.1
Параметр CABAC формата : Да
Параметр ReFrames формата : 9 кадров
Идентификатор кодека : V_MPEG4/ISO/AVC
Продолжительность : 1 ч. 33 м.
Битрейт : 2664 Кбит/сек
Ширина : 956 пикселей
Высота : 576 пикселей
Соотношение сторон : 1,660
Режим частоты кадров : Постоянный
Частота кадров : 24,000 кадра/сек
Цветовое пространство : YUV
Субдискретизация насыщенности : 4:2:0
Битовая глубина : 8 бит
Тип развёртки : Прогрессивная
Бит/(Пиксели*Кадры) : 0.202
Размер потока : 1,74 Гбайт (75%)
Библиотека кодирования : x264 core 146 r2538 121396c
Настройки программы : cabac=1 / ref=9 / deblock=1:-1:-1 / analyse=0x3:0x113 / me=umh / subme=10 / psy=1 / psy_rd=1.00:0.15 / mixed_ref=1 / me_range=32 / chroma_me=1 / trellis=2 / 8x8dct=1 / cqm=0 / deadzone=21,11 / fast_pskip=1 / chroma_qp_offset=-3 / threads=6 / lookahead_threads=1 / sliced_threads=0 / nr=0 / decimate=1 / interlaced=0 / bluray_compat=0 / constrained_intra=0 / bframes=10 / b_pyramid=2 / b_adapt=2 / b_bias=0 / direct=1 / weightb=1 / open_gop=0 / weightp=2 / keyint=230 / keyint_min=23 / scenecut=40 / intra_refresh=0 / rc_lookahead=40 / rc=crf / mbtree=0 / crf=19.6 / qcomp=0.60 / qpmin=0 / qpmax=69 / qpstep=4 / vbv_maxrate=40000 / vbv_bufsize=50000 / crf_max=0.0 / nal_hrd=none / filler=0 / ip_ratio=1.40 / pb_ratio=1.30 / aq=1:1.00
Язык : French
Default : Да
Forced : Нет
DURATION : 01:33:46.250000000
NUMBER_OF_FRAMES : 135030
NUMBER_OF_BYTES : 1921967924
_STATISTICS_WRITING_APP : mkvmerge v7.9.0 ('Birds') 64bit
_STATISTICS_WRITING_DATE_UTC : 2015-07-08 05:13:36
_STATISTICS_TAGS : BPS DURATION NUMBER_OF_FRAMES NUMBER_OF_BYTES

Аудио #1
Идентификатор : 2
Формат : AC-3
Формат/Информация : Audio Coding 3
Расширение режима : CM (complete main)
Параметр Endianness формата : Big
Идентификатор кодека : A_AC3
Продолжительность : 1 ч. 33 м.
Вид битрейта : Постоянный
Битрейт : 384 Кбит/сек
Каналы : 2 канала
Расположение каналов : Front: L R
Частота : 48,0 КГц
Битовая глубина : 16 бит
Метод сжатия : С потерями
Размер потока : 258 Мбайт (11%)
Заголовок : MVO
Язык : Russian
Default : Да
Forced : Нет

Аудио #2
Идентификатор : 3
Формат : AC-3
Формат/Информация : Audio Coding 3
Расширение режима : CM (complete main)
Параметр Endianness формата : Big
Идентификатор кодека : A_AC3
Продолжительность : 1 ч. 33 м.
Вид битрейта : Постоянный
Битрейт : 448 Кбит/сек
Каналы : 2 канала
Расположение каналов : Front: L R
Частота : 48,0 КГц
Битовая глубина : 16 бит
Метод сжатия : С потерями
Размер потока : 300 Мбайт (13%)
Заголовок : Original
Язык : French
Default : Нет
Forced : Нет



Скачать Розовый.телефон.Le.telephone.rose.(Эдуар.Молинаро).[1975.драма.комедия.BDRip.AVC].[MVO]+[Оригинал].torrent без регистрации
Золото ЗОЛОТАЯ РАЗДАЧА! СКАЧАННОЕ НЕ ЗАСЧИТЫВАЕТСЯ! Золото
Дата: Зарегистрирован   [ Тип: внутренний ] Как тут cкачать?
MAGNET ссылка
MAGNET ссылка


Скачать .torrent

12 KB

Статус: проверено DHT
Скачан: торрент - 106 раз, раздача полностью - 0 раз
Размер: 2,34 GB
Оценка:  - (Голосов: 0)
Поблагодарили: 0
Поделиться ссылкой на эту раздачу с друзьями:
В контактеFacebookОдноклассникиTwitterLivejournalМой МирLiveinternet
 

 
Показать сообщения:    


Вы не можете начинать темы
Вы не можете отвечать на сообщения
Вы не можете редактировать свои сообщения
Вы не можете удалять свои сообщения
Вы не можете голосовать в опросах
Вы не можете прикреплять файлы к сообщениям
Вы можете скачивать файлы