Loading...
Error

Скачать Кто подставил кролика Роджера / Who Framed Roger Rabbit (Роберт Земекис) [1988, мультфильм, комедия, криминал, семейный, фэнтези, детектив, BDRip-AVC] [Dub]+[MVO]x3+[AVO]x3+[Sub]x2 торрент без регистрации

 
Статистика раздачи
Размер:  4,08 GB   |    Скачан:  182 раза

Полного источника не было: 21 минута

 
Автор Сообщение

Marsianka

[] 

Кто подставил кролика Роджера
| Who Framed Roger Rabbit |


Информация о фильме
Название: Кто подставил кролика Роджера
Оригинальное название: Who Framed Roger Rabbit
Год выхода: 1988
Жанр: мультфильм, комедия, криминал, семейный, фэнтези, детектив
Режиссер: Роберт Земекис
В ролях: Боб Хоскинс, Кристофер Ллойд, Джоанна Кэссиди, Чарльз Флейшер, Стабби Кэй, Элан Тилверн, Ричард ЛеПарментье, Лу Хирш, Бетси Брантли, Джоэль Сильвер

О фильме:
Частный детектив расследует загадочное преступление, в котором подозревается… мультипликационный персонаж кролик Роджер! Сыщик попадает в непредсказуемый мир, где его ожидают нарисованные злодеи с настоящими револьверами, говорящий автомобиль и соблазнительная мультяшная красотка. Наконец, на горизонте появляется мрачная фигура того, кто подставил кролика Роджера… Стивен Спилберг и Роберт Земекис создали уникальный фильм, где впервые в истории мирового кино была соединена анимация и художественная съёмка. Наряду с настоящими актёрами в картине играют мультипликационные герои, которые вмешиваются в сложный ход реальных событий, устанавливая свои правила и законы.



Страна: США
Студия: Amblin Entertainment, Silver Screen Partners III, Touchstone Pictures, Walt Disney Feature Animation
Продолжительность: 01:43:45
Перевод: Дублированный, профессиональный многоголосый, авторский

Файл
Кодек: h.264
Качество: BDRip-AVC
Видео: MPEG-4 AVC, 2932 Кбит/с, 1024х554, 23.976 кадр/с

• №1: Русский (AC3, 6 ch, 384 Кбит/с) Дублированный
• №2: Русский (AC3, 6 ch, 384 Кбит/с) Профессиональный многоголосый №1
• №3: Русский (AC3, 6 ch, 384 Кбит/с) Авторский одноголосый [Андрей Гаврилов]
• №4: Английский (AC3, 6 ch, 384 Кбит/с)
Отдельно:
• №5: Русский (AC3, 6 ch, 384 Кбит/с) Профессиональный многоголосый №2
• №6: Русский (AC3, 2 ch, 192 Кбит/с) Авторский одноголосый [Юрий Живов]
• №7: Русский (AC3, 6 ch, 384 Кбит/с) Авторский одноголосый [Алексей Михалев]
• №8: Украинский (AC3, 2 ch, 192 Кбит/с) Профессиональный многоголосый [K1]

Субтитры: Русские, английские [SDH]

---------------------------------------------------------------------------
x264 [info]: frame I:1408 Avg QP:15.55 size:112820
x264 [info]: frame P:36007 Avg QP:18.61 size: 33015
x264 [info]: frame B:111854 Avg QP:20.66 size: 8342
---------------------------------------------------------------------------

Полное имя : D:Who.Framed.Roger.Rabbit.1988.x264.BDRip-AVC.0ptimus.mkv
Формат : Matroska
Версия формата : Version 2
Размер файла : 3,24 Гбайт
Продолжительность : 1 ч. 43 м.
Общий поток : 4467 Кбит/сек
Название фильма : Кто подставил кролика Роджера | Who Framed Roger Rabbit [1988] -= BDRip (AVC) by 0ptimus =-
Дата кодирования : UTC 2014-11-13 08:24:27
Программа кодирования : mkvmerge v6.6.0 ('The Edge Of The In Between') built on Dec 1 2013 17:55:00
Библиотека кодирования : libebml v1.3.0 + libmatroska v1.4.1

Видео
Идентификатор : 1
Формат : AVC
Формат/Информация : Advanced Video Codec
Профиль формата : High@L4.1
Параметр CABAC формата : Да
Параметр ReFrames формата : 8 кадров
Идентификатор кодека : V_MPEG4/ISO/AVC
Продолжительность : 1 ч. 43 м.
Битрейт : 2932 Кбит/сек
Ширина : 1024 пикселя
Высота : 554 пикселя
Соотношение сторон : 1,85:1
Режим частоты кадров : Постоянный
Частота кадров : 23,976 кадра/сек
Цветовое пространство : YUV
Субдискретизация насыщенности : 4:2:0
Битовая глубина : 8 бит
Тип развёртки : Прогрессивная
Бит/(Пиксели*Кадры) : 0.216
Размер потока : 2,06 Гбайт (64%)
Заголовок : Rip by 0ptimus
Библиотека кодирования : x264 core 129 r2245 bc13772
Настройки программы : cabac=1 / ref=8 / deblock=1:-3:-3 / analyse=0x3:0x113 / me=umh / subme=10 / psy=1 / psy_rd=1.00:0.20 / mixed_ref=1 / me_range=32 / chroma_me=1 / trellis=2 / 8x8dct=1 / cqm=0 / deadzone=21,11 / fast_pskip=0 / chroma_qp_offset=-3 / threads=4 / lookahead_threads=1 / sliced_threads=0 / nr=0 / decimate=0 / interlaced=0 / bluray_compat=0 / constrained_intra=0 / bframes=7 / b_pyramid=2 / b_adapt=2 / b_bias=0 / direct=3 / weightb=1 / open_gop=0 / weightp=2 / keyint=240 / keyint_min=23 / scenecut=40 / intra_refresh=0 / rc_lookahead=40 / rc=2pass / mbtree=0 / bitrate=2932 / ratetol=1.0 / qcomp=0.60 / qpmin=0 / qpmax=69 / qpstep=4 / cplxblur=20.0 / qblur=0.5 / vbv_maxrate=50000 / vbv_bufsize=50000 / nal_hrd=none / ip_ratio=1.40 / pb_ratio=1.30 / aq=1:1.00
Язык : English
Default : Да
Forced : Да

Аудио #1
Идентификатор : 2
Формат : AC-3
Формат/Информация : Audio Coding 3
Расширение режима : CM (complete main)
Параметр Endianness формата : Big
Идентификатор кодека : A_AC3
Продолжительность : 1 ч. 43 м.
Вид битрейта : Постоянный
Битрейт : 384 Кбит/сек
Каналы : 6 каналов
Расположение каналов : Front: L C R, Side: L R, LFE
Частота : 48,0 КГц
Битовая глубина : 16 бит
Метод сжатия : С потерями
Размер потока : 285 Мбайт (9%)
Заголовок : Дублированный AC3 5.1 @ 384 kbps
Язык : Russian
Default : Да
Forced : Да

Аудио #2
Идентификатор : 3
Формат : AC-3
Формат/Информация : Audio Coding 3
Расширение режима : CM (complete main)
Параметр Endianness формата : Big
Идентификатор кодека : A_AC3
Продолжительность : 1 ч. 43 м.
Вид битрейта : Постоянный
Битрейт : 384 Кбит/сек
Каналы : 6 каналов
Расположение каналов : Front: L C R, Side: L R, LFE
Частота : 48,0 КГц
Битовая глубина : 16 бит
Метод сжатия : С потерями
Размер потока : 285 Мбайт (9%)
Заголовок : Многоголосый закадровый [№1] AC3 5.1 @ 384 kbps
Язык : Russian
Default : Нет
Forced : Нет

Аудио #3
Идентификатор : 4
Формат : AC-3
Формат/Информация : Audio Coding 3
Расширение режима : CM (complete main)
Параметр Endianness формата : Big
Идентификатор кодека : A_AC3
Продолжительность : 1 ч. 43 м.
Вид битрейта : Постоянный
Битрейт : 384 Кбит/сек
Каналы : 6 каналов
Расположение каналов : Front: L C R, Side: L R, LFE
Частота : 48,0 КГц
Битовая глубина : 16 бит
Метод сжатия : С потерями
Размер потока : 285 Мбайт (9%)
Заголовок : Авторский [Андрей Гаврилов] AC3 5.1 @ 384 kbps
Язык : Russian
Default : Нет
Forced : Нет

Аудио #4
Идентификатор : 5
Формат : AC-3
Формат/Информация : Audio Coding 3
Расширение режима : CM (complete main)
Параметр Endianness формата : Big
Идентификатор кодека : A_AC3
Продолжительность : 1 ч. 43 м.
Вид битрейта : Постоянный
Битрейт : 384 Кбит/сек
Каналы : 6 каналов
Расположение каналов : Front: L C R, Side: L R, LFE
Частота : 48,0 КГц
Битовая глубина : 16 бит
Метод сжатия : С потерями
Размер потока : 285 Мбайт (9%)
Заголовок : AC3 5.1 @ 384 kbps
Язык : English
Default : Нет
Forced : Нет

Текст #1
Идентификатор : 6
Формат : UTF-8
Идентификатор кодека : S_TEXT/UTF8
Идентификатор кодека/Информация : UTF-8 Plain Text
Язык : Russian
Default : Нет
Forced : Нет

Текст #2
Идентификатор : 7
Формат : UTF-8
Идентификатор кодека : S_TEXT/UTF8
Идентификатор кодека/Информация : UTF-8 Plain Text
Заголовок : SDH
Язык : English
Default : Нет
Forced : Нет

Меню
00:00:00.000 : :Opening Credits / "Somethings Cookin'"
00:05:33.458 : :Hollywood 1947
00:09:44.625 : :Public Transportation System
00:14:06.136 : :Ink and Pain Club
00:20:40.614 : :Patty-Cake
00:28:53.022 : :Scene of the Crime
00:34:07.128 : :Roger Finds Eddy
00:41:12.094 : :Toon Patrol
00:46:27.993 : :Jessica's Plea
00:49:36.890 : :Shave and a Harcut
00:57:14.013 : :Benny the Cab
01:03:33.434 : :The Connection
01:07:24.373 : :Toontown
01:12:08.782 : :Eddie Takes a Fall
01:16:45.809 : :Doom's Plan
01:22:05.921 : :Getting Dipped
01:28:49.032 : :Eddie's Toon Enemy
01:34:23.199 : :Acme's Will / End Credits
Релиз от:



Скачать Кто.подставил.кролика.Роджера.Who.Framed.Roger.Rabbit.(Роберт.Земекис).[1988.мультфильм.комедия.криминал.семейный.фэнтези.детектив.BDRip-AVC].[Dub]+[MVO]x3+[AVO]x3+[Sub]x2.torrent без регистрации
Золото ЗОЛОТАЯ РАЗДАЧА! СКАЧАННОЕ НЕ ЗАСЧИТЫВАЕТСЯ! Золото
Дата: Зарегистрирован   [ Тип: внутренний ] Как тут cкачать?
MAGNET ссылка
MAGNET ссылка


Скачать .torrent

22 KB

Статус: проверено DHT
Скачан: торрент - 182 раз, раздача полностью - 14 раз
Размер: 4,08 GB
Оценка:  5 (Голосов: 1)
Поблагодарили: 1
Поделиться ссылкой на эту раздачу с друзьями:
В контактеFacebookОдноклассникиTwitterLivejournalМой МирLiveinternet
 

 
Показать сообщения:    


Вы не можете начинать темы
Вы не можете отвечать на сообщения
Вы не можете редактировать свои сообщения
Вы не можете удалять свои сообщения
Вы не можете голосовать в опросах
Вы не можете прикреплять файлы к сообщениям
Вы можете скачивать файлы