Loading...
Error

Скачать Заключенный Р / R (Тобиас Линдхольм, Майкл Ноер) [2009, Криминал, драма, HDRip] торрент без регистрации

 
Статистика раздачи
Размер:  745 MB   |    Скачан:  159 раз

Полного источника не было: 4 месяца 3 дня

 
Автор Сообщение

Шкипер

[] 


Заключенный Р / R


Год выпуска: 2009
Выпущено: Дания
Жанр: Криминал, драма
Продолжительность: 01:35:44
Перевод: Профессиональный (многоголосый)
Субтитры: Отсутствует

Режиссер: Тобиас Линдхольм, Майкл Ноер

В ролях: Йохан Филип Асбек, Дулфи Аль-Джабоури, Роланд Мюллер, Джэкоб Гредстед, Ким Уинтер, Омар Шаргави, Суне Норгаард

Описание: В тюрьму, известную на всю Данию своими жесткими условиями содержания, прибывает заключенный по имени Р. Здесь он будет отбывать срок за насилие. Тюрьма - это параллельный мир, со своими правилами, понятиями о чести и обязанностями. Тут на окнах - решетки, а пол залит кровью. Р помещают в отсек к самым агрессивным зекам. Здесь ему предстоит найти свое место, научиться перемещаться и бороться за выживание.



[img]/images/sample.gif[/img]

Доп. информация:
Рип от:
Рейтинг:

Качество: HDRip
Формат: AVI
Видео кодек: XviD
Аудио кодек: MP3
Видео: 624x352 (1.77:1), 25 fps, XviD build 73 ~950 kbps avg, 0.17 bit/pixel
Аудио: 48 kHz, MPEG Layer 3, 2 ch, ~128.00 kbps avg |"Новый диск"|

General
Complete name : D:ТоррентМОИ РИПЫЗаключенный РZakliuchonnii R (2010) HDRip-by shkiper.avi
Format : AVI
Format/Info : Audio Video Interleave
File size : 745 MiB
Duration : 1h 35mn
Overall bit rate : 1 088 Kbps
Writing application : VirtualDubMod 1.5.10.3 | www.virtualdub-fr.org || (build 2550/release)
Writing library : VirtualDubMod build 2550/release

Video
ID : 0
Format : MPEG-4 Visual
Format profile : Advanced Simple@L5
Format settings, BVOP : 1
Format settings, QPel : No
Format settings, GMC : No warppoints
Format settings, Matrix : Default (MPEG)
Codec ID : XVID
Codec ID/Hint : XviD
Duration : 1h 35mn
Bit rate : 950 Kbps
Width : 624 pixels
Height : 352 pixels
Display aspect ratio : 16:9
Frame rate : 25.000 fps
Color space : YUV
Chroma subsampling : 4:2:0
Bit depth : 8 bits
Scan type : Progressive
Compression mode : Lossy
Bits/(Pixel*Frame) : 0.173
Stream size : 651 MiB (87%)
Writing library : XviD 73

Audio
ID : 1
Format : MPEG Audio
Format version : Version 1
Format profile : Layer 3
Mode : Joint stereo
Mode extension : MS Stereo
Codec ID : 55
Codec ID/Hint : MP3
Duration : 1h 35mn
Bit rate mode : Constant
Bit rate : 128 Kbps
Channel(s) : 2 channels
Sampling rate : 48.0 KHz
Compression mode : Lossy
Stream size : 87.6 MiB (12%)
Alignment : Aligned on interleaves
Interleave, duration : 40 ms (1.00 video frame)
Interleave, preload duration : 504 ms
Writing library : LAME3.99r
Encoding settings : -m j -V 4 -q 2 -lowpass 17 -b 128

Альтернативный фотохостинг






Скачать Заключенный.Р.R.(Тобиас.Линдхольм.Майкл.Ноер).[2009.Криминал.драма.HDRip].torrent без регистрации
Золото ЗОЛОТАЯ РАЗДАЧА! СКАЧАННОЕ НЕ ЗАСЧИТЫВАЕТСЯ! Золото
Дата: Зарегистрирован   [ Тип: внутренний ] Как тут cкачать?
MAGNET ссылка
MAGNET ссылка


Скачать .torrent

15 KB

Статус: проверено
Скачан: торрент - 159 раз, раздача полностью - 12 раз
Размер: 745 MB
Оценка:  4 (Голосов: 2)
Поблагодарили: 0
Поделиться ссылкой на эту раздачу с друзьями:
В контактеFacebookОдноклассникиTwitterLivejournalМой МирLiveinternet
 

 
Показать сообщения:    


Вы не можете начинать темы
Вы не можете отвечать на сообщения
Вы не можете редактировать свои сообщения
Вы не можете удалять свои сообщения
Вы не можете голосовать в опросах
Вы не можете прикреплять файлы к сообщениям
Вы можете скачивать файлы