Loading...
Error

Скачать Идиот в Париже / Un idiot à Paris (Серж Корбер) [1967, комедия, DVDRip-AVC] [MVO] торрент без регистрации

 
Статистика раздачи
Размер:  1,45 GB   |    Скачан:  94 раза
Сидов:  1  [  0 KB/s  ]  
 
Автор Сообщение

Marsianka

[] 

Страна: Франция
Жанр: комедия
Год выпуска: 1967
Продолжительность: 01:25:37
Перевод: Профессиональный (многоголосый, закадровый) [по заказу ТК "Россия" (2003)]

Режиссер: Серж Корбер / Serge Korber

В ролях: Дани Каррель (Juliette dite 'La fleur'), Жан Лефевр (Goubi), Бернар Блие (Léon Dessertine), Робер Дальбан (Patouilloux), Мишлин Люссьони (Lucienne - une prostituée), Фернан Берсе (Jules Grafouill res), Жан Карме (Ernest Grafouill res), Альбер Реми (Rabichon, le restaurateur), Бернадетт Лафон (Berthe Patouilloux), Андре Пусс (Le chauffeur de taxi), Поль Пребуа (Le gardien du square / Square Guardian), Филипп Аврон (François Flutiaux)

Описание: Гоби - объект шуток в маленькой провинциальной деревне. Всех забавляет, что он мечтает побывать в самом романтическом городе - Париже. Для того, чтобы очередной раз над ним подшутить, насмешники кладут спящего Гоби в машину, которая должна отвезти его к мечте. Проснувшись, Гоби не пониманет, как он здесь очутился. Он начинает свое путешествие по своей мечте, и встречает на своем пути множество друзей.



Семпл

Качество: DVDRip
Контейнер: MKV

Видео: AVC, 716x432 @ 1018x432 (2.35:1), 2228 kbps, 25 fps, 0.288 bpp
Аудио: русский / AC3 / 2.0 / 48 kHz / 192 kbps / 16 bit
Навигация по главам: есть

General
Unique ID : 209465947194408995222827546802113477704 (0x9D95AC8B77D761A2AB4FFCEF2F93FC48)
Complete name : C:TorrentIdiot.V.Parishe.DVDRipAVC.mkv
Format : Matroska
Format version : Version 2
File size : 1.56 GiB
Duration : 1h 25mn
Overall bit rate : 2 614 Kbps
Movie name : = Идиот в Париже / Un idiot a Paris DVDRip by SC Kosmos =
Encoded date : UTC 2013-02-28 21:54:16
Writing application : mkvmerge v3.3.0 ('Language') gebaut am Mar 24 2010 14:59:24
Writing library : libebml v0.8.0 + libmatroska v0.9.0

Video
ID : 1
Format : AVC
Format/Info : Advanced Video Codec
Format profile : High@L4.1
Format settings, CABAC : Yes
Format settings, ReFrames : 14 frames
Codec ID : V_MPEG4/ISO/AVC
Duration : 1h 25mn
Bit rate : 2 228 Kbps
Width : 716 pixels
Height : 432 pixels
Display aspect ratio : 2.35:1
Original display aspect ratio : 2.35:1
Frame rate : 25.000 fps
Color space : YUV
Chroma subsampling : 4:2:0
Bit depth : 8 bits
Scan type : Progressive
Bits/(Pixel*Frame) : 0.288
Stream size : 1.30 GiB (83%)
Title : Идиот в Париже / Un idiot a Paris DVDRip by SC Kosmos
Writing library : x264 core 129 r2245 bc13772
Encoding settings : cabac=1 / ref=14 / deblock=1:-2:-2 / analyse=0x3:0x112 / me=umh / subme=11 / psy=1 / psy_rd=1.00:0.15 / mixed_ref=1 / me_range=32 / chroma_me=1 / trellis=2 / 8x8dct=1 / cqm=0 / deadzone=21,11 / fast_pskip=1 / chroma_qp_offset=-3 / threads=12 / lookahead_threads=2 / sliced_threads=0 / nr=0 / decimate=1 / interlaced=0 / bluray_compat=0 / constrained_intra=0 / bframes=12 / b_pyramid=2 / b_adapt=1 / b_bias=0 / direct=3 / weightb=1 / open_gop=0 / weightp=1 / keyint=250 / keyint_min=25 / scenecut=40 / intra_refresh=0 / rc=2pass / mbtree=0 / bitrate=2228 / ratetol=1.0 / qcomp=0.60 / qpmin=0 / qpmax=69 / qpstep=4 / cplxblur=20.0 / qblur=0.5 / ip_ratio=1.40 / pb_ratio=1.30 / aq=1:1.00
Language : French
Default : No
Forced : No

Audio #1
ID : 2
Format : AC-3
Format/Info : Audio Coding 3
Mode extension : CM (complete main)
Codec ID : A_AC3
Duration : 1h 25mn
Bit rate mode : Constant
Bit rate : 192 Kbps
Channel(s) : 2 channels
Channel positions : Front: L R
Sampling rate : 48.0 KHz
Bit depth : 16 bits
Compression mode : Lossy
Stream size : 118 MiB (7%)
Title : MVO ( по заказу ТК "Россия" (2003) )
Language : Russian
Default : Yes
Forced : No

Audio #2
ID : 3
Format : AC-3
Format/Info : Audio Coding 3
Mode extension : CM (complete main)
Codec ID : A_AC3
Duration : 1h 25mn
Bit rate mode : Constant
Bit rate : 192 Kbps
Channel(s) : 2 channels
Channel positions : Front: L R
Sampling rate : 48.0 KHz
Bit depth : 16 bits
Compression mode : Lossy
Stream size : 118 MiB (7%)
Language : French
Default : No
Forced : No

Menu
00:00:00.000 : en:Chapter 01
00:07:12.960 : en:Chapter 02
00:17:23.040 : en:Chapter 03
00:25:39.840 : en:Chapter 04
00:33:03.360 : en:Chapter 05
00:42:37.440 : en:Chapter 06
00:53:56.160 : en:Chapter 07
01:00:31.200 : en:Chapter 08
01:04:22.080 : en:Chapter 09
01:09:48.960 : en:Chapter 10
01:17:27.360 : en:Chapter 11
01:23:09.600 : en:Chapter 12



Скачать Идиот.в.Париже.Un.idiot.à.Paris.(Серж.Корбер).[1967.комедия.DVDRip-AVC].[MVO].torrent без регистрации
Золото ЗОЛОТАЯ РАЗДАЧА! СКАЧАННОЕ НЕ ЗАСЧИТЫВАЕТСЯ! Золото
Дата: Зарегистрирован   [ Тип: внутренний ] Как тут cкачать?
MAGNET ссылка
MAGNET ссылка


Скачать .torrent

15 KB

Статус: проверено DHT
Скачан: торрент - 94 раз, раздача полностью - 1 раз
Размер: 1,45 GB
Оценка:  5 (Голосов: 1)
Поблагодарили: 2
Поделиться ссылкой на эту раздачу с друзьями:
В контактеFacebookОдноклассникиTwitterLivejournalМой МирLiveinternet
 

 
Показать сообщения:    


Вы не можете начинать темы
Вы не можете отвечать на сообщения
Вы не можете редактировать свои сообщения
Вы не можете удалять свои сообщения
Вы не можете голосовать в опросах
Вы не можете прикреплять файлы к сообщениям
Вы можете скачивать файлы