Loading...
Error

Скачать Оранжевый — хит сезона / Orange Is the New Black (сезон 01) (Эндрю МакКарти и др.) [2013, драма, комедия, криминал, BDRip] [720p] [MVO (NewStudio)]+[Eng]+[Sub Eng] торрент без регистрации

 
Статистика раздачи
Размер:  38,03 GB   |    Скачан:  2453 раза
Сидов:  1  [  0 KB/s  ]  
 
Автор Сообщение

МихаНЕзатор

[] 

Информация о сериале
Название: Оранжевый — хит сезона
Оригинальное название: Orange Is the New Black
Годы выхода: 2013
Жанр: драма, комедия, криминал
Автор идеи: Дженджи Коэн /Jenji Kohan/
Режиссеры: Эндрю МакКарти /Andrew McCarthy/, Майкл Трим /Michael Trim/, Фил Абрахам /Phil Abraham/ и др.

В ролях: Тейлор Шиллинг /Taylor Schilling/, Лора Припон /Laura Prepon/, Майкл Харни /Michael Harney/, Мишель Хёрст /Michelle Hurst/, Кейт Малгрю /Kate Mulgrew/, Джейсон Биггз /Jason Biggs/, Узо Адуба /Uzo Aduba/, Даниэль Брукс /Danielle Brooks/, Наташа Лионн /Natasha Lyonne/, Тэрин Мэннинг /Taryn Manning/ и др.

О сериале: Пайпер Чепмен — обычная жительница Коннектикута. Она любит свою благополучную жизнь и все её приятные мелочи. Душ по утрам, красивый завтрак, занятия любовью. Но случается так, что благодаря своему мимолетному увлечению контрабандисткой наркотиков, Пайпер оказывается заключенной в тюрьму на долгие пятнадцать месяцев. Отныне ей необходимо не только привыкнуть к новому окружению, но и просто — выжить.

Релиз от:
by Vlad1k_H_ Рип от NTb!

Страны: США
Студии: Tilted Productions / Lionsgate Television
Продолжительность: 13 x ~ 00:55:00
Перевод: Профессиональный (многоголосый, закадровый) - NewStudio

Файл
Кодек: H.264
Качество: BDRip 720p
Видео: 1280x720 at 23.976 fps, x264@L4.1, crf, ~4200 kbps avg
Аудио#1: Russian: 48 kHz, DTS, 3/2 (L,C,R,l,r) + LFE ch, ~1509.00 kbps avg |Многоголосый закадровый, NewStudio|
Аудио#2: English: 48 kHz, DTS, 3/2 (L,C,R,l,r) + LFE ch, ~1509.00 kbps avg |Оригинал|
Аудио#3: English: 48 kHz, AC3, 2/0 (L,R) ch, ~224.00 kbps avg |Комментарии| /только для серий 1 и 13/
Субтитры: English (Full, SDH)

АНОНСЫ ПОПУЛЯРНЫХ РАЗДАЧ
General
Complete name : Orange.is.the.New.Black.S01E01.720p.Rus.Eng.HDCLUB.mkv
Format : Matroska
Format version : Version 4 / Version 2
File size : 2.67 GiB
Duration : 51mn 8s
Overall bit rate : 7 464 Kbps
Encoded date : UTC 2014-06-06 13:43:15
Writing application : mkvmerge v6.5.0 ('Isn't she lovely') built on Oct 20 2013 12:50:05
Writing library : libebml v1.3.0 + libmatroska v1.4.1

Video
ID : 1
Format : AVC
Format/Info : Advanced Video Codec
Format profile : High@L4.1
Format settings, CABAC : Yes
Format settings, ReFrames : 9 frames
Codec ID : V_MPEG4/ISO/AVC
Duration : 51mn 8s
Bit rate : 4 074 Kbps
Width : 1 280 pixels
Height : 720 pixels
Display aspect ratio : 16:9
Frame rate mode : Constant
Frame rate : 23.976 fps
Color space : YUV
Chroma subsampling : 4:2:0
Bit depth : 8 bits
Scan type : Progressive
Bits/(Pixel*Frame) : 0.184
Stream size : 1.46 GiB (55%)
Writing library : x264 core 140 r2377 1ca7bb9
Encoding settings : cabac=1 / ref=9 / deblock=1:-3:-3 / analyse=0x3:0x133 / me=umh / subme=10 / psy=1 / psy_rd=1.00:0.00 / mixed_ref=1 / me_range=32 / chroma_me=1 / trellis=2 / 8x8dct=1 / cqm=0 / deadzone=21,11 / fast_pskip=0 / chroma_qp_offset=-2 / threads=12 / lookahead_threads=2 / sliced_threads=0 / nr=0 / decimate=0 / interlaced=0 / bluray_compat=0 / constrained_intra=0 / bframes=9 / b_pyramid=2 / b_adapt=2 / b_bias=0 / direct=3 / weightb=1 / open_gop=0 / weightp=2 / keyint=250 / keyint_min=23 / scenecut=40 / intra_refresh=0 / rc=crf / mbtree=0 / crf=16.0 / qcomp=0.70 / qpmin=0 / qpmax=69 / qpstep=4 / ip_ratio=1.40 / pb_ratio=1.30 / aq=1:0.60
Language : English
Default : Yes
Forced : No

Audio #1
ID : 2
Format : DTS
Format/Info : Digital Theater Systems
Mode : 16
Format settings, Endianness : Big
Codec ID : A_DTS
Duration : 51mn 8s
Bit rate mode : Constant
Bit rate : 1 509 Kbps
Channel(s) : 6 channels
Channel positions : Front: L C R, Side: L R, LFE
Sampling rate : 48.0 KHz
Bit depth : 16 bits
Compression mode : Lossy
Stream size : 552 MiB (20%)
Title : NewStudio @ DTS 5.1
Language : Russian
Default : Yes
Forced : No

Audio #2
ID : 3
Format : DTS
Format/Info : Digital Theater Systems
Mode : 16
Format settings, Endianness : Big
Codec ID : A_DTS
Duration : 51mn 8s
Bit rate mode : Constant
Bit rate : 1 509 Kbps
Channel(s) : 6 channels
Channel positions : Front: L C R, Side: L R, LFE
Sampling rate : 48.0 KHz
Bit depth : 24 bits
Compression mode : Lossy
Stream size : 552 MiB (20%)
Title : Original @ DTS 5.1
Language : English
Default : No
Forced : No

Audio #3
ID : 4
Format : AC-3
Format/Info : Audio Coding 3
Mode extension : CM (complete main)
Format settings, Endianness : Big
Codec ID : A_AC3
Duration : 51mn 8s
Bit rate mode : Constant
Bit rate : 224 Kbps
Channel(s) : 2 channels
Channel positions : Front: L R
Sampling rate : 48.0 KHz
Compression mode : Lossy
Stream size : 81.9 MiB (3%)
Title : Commentary
Language : English
Default : No
Forced : No

Text #1
ID : 5
Format : UTF-8
Codec ID : S_TEXT/UTF8
Codec ID/Info : UTF-8 Plain Text
Language : English
Default : No
Forced : No

Text #2
ID : 6
Format : UTF-8
Codec ID : S_TEXT/UTF8
Codec ID/Info : UTF-8 Plain Text
Title : SDH
Language : English
Default : No
Forced : No

Menu
00:00:00.000 : en:00:00:00.000
00:03:06.603 : en:00:03:06.603
00:09:59.933 : en:00:09:59.933
00:17:10.112 : en:00:17:10.112
00:25:32.448 : en:00:25:32.448
00:35:25.540 : en:00:35:25.540
00:42:20.079 : en:00:42:20.079
00:49:56.202 : en:00:49:56.202
01. I Wasn't Ready / Я была не готова
02. Tit Punch / Прямо в сиську
03. Lesbian Request Denied / В просьбе о лесбиянстве отказано
04. Imaginary Enemies / Воображаемые враги
05. The Chickening / Оцыпленение
06. WAC Pack / Женсовет
07. Blood Donut / Кровавый пончик
08. Moscow Mule / Московская ослиха
09. Fucksgiving / День благохренения
10. Bora Bora Bora / Бора Бора Бора
11. Tall Men with Feelings / Высокие мужчины с душой
12. Fool Me Once / Дважды на грабли
13. Can't Fix Crazy / Безумие не излечимо
ЦитатаКто-то писал:
Сохранены оригинальные главы как на Blu-ray.
Дорожка №1 получена наложением чистого голоса на центр декодированного DTS-HD MA.
Перевод: Weirdie, роли озвучивали: Александр Дасевич, Ирина Воронова, Анна Тух.



Скачать Оранжевый.—.хит.сезона.Orange.Is.the.New.Black.(сезон.01).(Эндрю.МакКарти.и.др.).[2013.драма.комедия.криминал.BDRip].[720p].[MVO.(NewStudio)]+[Eng]+[Sub.Eng].torrent без регистрации
Золото ЗОЛОТАЯ РАЗДАЧА! СКАЧАННОЕ НЕ ЗАСЧИТЫВАЕТСЯ! Золото
Дата: Зарегистрирован   [ Тип: внутренний ] Как тут cкачать?
MAGNET ссылка
MAGNET ссылка


Скачать .torrent

97 KB

Статус: проверено DHT
Скачан: торрент - 2453 раз, раздача полностью - 6 раз
Размер: 38,03 GB
Оценка:  - (Голосов: 0)
Поблагодарили: 0
Поделиться ссылкой на эту раздачу с друзьями:
В контактеFacebookОдноклассникиTwitterLivejournalМой МирLiveinternet
 

 
Показать сообщения:    


Вы не можете начинать темы
Вы не можете отвечать на сообщения
Вы не можете редактировать свои сообщения
Вы не можете удалять свои сообщения
Вы не можете голосовать в опросах
Вы не можете прикреплять файлы к сообщениям
Вы можете скачивать файлы