Loading...
Error

Скачать Сражение за тяжёлую воду / Kampen om tungtvannet (сезон 01) (Пер-Олав Соренсен) [2015, драма, военный, история, HDRip-AVC] [AVO (Д. Есарев)] торрент без регистрации

 
Статистика раздачи
Размер:  3,41 GB   |    Скачан:  105 раз
Сидов:  1  [  0 KB/s  ]  
 
Автор Сообщение

МихаНЕзатор

[] 

Информация о фильме:
✦ Название:Сражение за тяжёлую воду
✦ Оригинальное название: Kampen om tungtvannet
✦ Год выхода: 2015
✦ Жанр: драма, военный, история
✦ Режиссер: Пер-Олав Соренсен

✦ В ролях: Андреас Дёлер, Роберт Хунгер-Бюлер, Марк Беньямин Пух, Кристоф Бах, Пери Баумейстер, Эспен Ребол Бьерке, Торстейн Бьёрклунд, Оле Кристоффер Эртвог, Ейрик Эвьен

Описание фильма: Сериал рассказывает о диверсионной операции по уничтожению завода в норвежском посёлке Рьюкан, на котором во время второй мировой войны было налажено производство тяжёлой воды, используемой гитлеровской Германией в собственном ядерном проекте для производства ядерного оружия. История показана с четырёх точек зрения - немецкой, союзников по антигитлеровской коалиции, команды диверсантов, а также со стороны компании «Norsk Hydro», владеющей заводом..



✦ Страна: Норвегия
✦ Продолжительность: ~ 00:45:00 серия
✦ Перевод: Авторский (одноголосый, закадровый) - Дмитрий Есарев

Информация о файле:
✦ Кодек: x264@L4.1
✦ Формат: MKV
✦ Качество: HDRip-AVC
✦ Видео: ~ 1350 kbps, 1024x576 (16:9), 25,000 fps
✦ Аудио RU: AC3, 6 ch, 448 kbps
✦ Субтитры: отсутствуют

АНОНСЫ ПОПУЛЯРНЫХ РАЗДАЧ
General
Unique ID : 155882185219159977520992300639134679555 (0x7545D11BD649444B852C8A5CDCC40203)
Complete name : E:СериалыБитва за тяжёлую воду [S01] (2015) HDRIP_AVC_576pThe.Battle.for.Heavy.Water.2015.Ep01.576p.HDRIP_AVC.[-=DoMiNo=-].mkv
Format : Matroska
Format version : Version 4 / Version 2
File size : 620 MiB
Duration : 44mn 54s
Overall bit rate : 1 929 Kbps
Writing application : XviD4PSP 7.0.148
Writing library : Lavf56.25.101
ENCODING_INFO : MATROSKA,WEBM > MKV / H264 > X264 CRF 19,0 Custom / DTS > AC3

Video
ID : 1
Format : AVC
Format/Info : Advanced Video Codec
Format profile : High@L4.1
Format settings, CABAC : Yes
Format settings, ReFrames : 10 frames
Codec ID : V_MPEG4/ISO/AVC
Duration : 44mn 54s
Bit rate : 1 443 Kbps
Width : 1 024 pixels
Height : 576 pixels
Display aspect ratio : 16:9
Frame rate mode : Constant
Frame rate : 25.000 fps
Color space : YUV
Chroma subsampling : 4:2:0
Bit depth : 8 bits
Scan type : Progressive
Bits/(Pixel*Frame) : 0.098
Stream size : 463 MiB (75%)
Writing library : x264 core 146 r2538M 121396c
Encoding settings : cabac=1 / ref=10 / deblock=1:-3:-3 / analyse=0x3:0x133 / me=umh / subme=10 / psy=1 / psy_rd=1,00:0,10 / mixed_ref=1 / me_range=32 / chroma_me=1 / trellis=2 / 8x8dct=1 / cqm=0 / deadzone=21,11 / fast_pskip=0 / chroma_qp_offset=-3 / threads=12 / lookahead_threads=2 / sliced_threads=0 / nr=0 / decimate=1 / interlaced=0 / bluray_compat=0 / constrained_intra=0 / bframes=9 / b_pyramid=2 / b_adapt=2 / b_bias=0 / direct=1 / weightb=1 / open_gop=0 / weightp=2 / keyint=250 / keyint_min=25 / scenecut=40 / intra_refresh=0 / rc=crf / mbtree=0 / crf=19,0 / qcomp=0,60 / qpmin=19 / qpmax=69 / qpstep=4 / ip_ratio=1,40 / pb_ratio=1,30 / aq=1:1,00
Language : English
Default : Yes
Forced : No

Audio
ID : 2
Format : AC-3
Format/Info : Audio Coding 3
Mode extension : CM (complete main)
Format settings, Endianness : Big
Codec ID : A_AC3
Duration : 44mn 54s
Bit rate mode : Constant
Bit rate : 448 Kbps
Channel(s) : 6 channels
Channel positions : Front: L C R, Side: L R, LFE
Sampling rate : 48.0 KHz
Bit depth : 32 bits
Compression mode : Lossy
Delay relative to video : 27ms
Stream size : 144 MiB (23%)
Language : Russian
Default : Yes
Forced : No



Скачать Сражение.за.тяжёлую.воду.Kampen.om.tungtvannet.(сезон.01).(Пер-Олав.Соренсен).[2015.драма.военный.история.HDRip-AVC].[AVO.(Д.Есарев)].torrent без регистрации
Золото ЗОЛОТАЯ РАЗДАЧА! СКАЧАННОЕ НЕ ЗАСЧИТЫВАЕТСЯ! Золото
Дата: Зарегистрирован   [ Тип: внутренний ] Как тут cкачать?
MAGNET ссылка
MAGNET ссылка


Скачать .torrent

18 KB

Статус: проверено DHT
Скачан: торрент - 105 раз, раздача полностью - 15 раз
Размер: 3,41 GB
Оценка:  - (Голосов: 0)
Поблагодарили: 1
Поделиться ссылкой на эту раздачу с друзьями:
В контактеFacebookОдноклассникиTwitterLivejournalМой МирLiveinternet
 

 
Показать сообщения:    


Вы не можете начинать темы
Вы не можете отвечать на сообщения
Вы не можете редактировать свои сообщения
Вы не можете удалять свои сообщения
Вы не можете голосовать в опросах
Вы не можете прикреплять файлы к сообщениям
Вы можете скачивать файлы