Loading...
Error

Скачать Босс / Boss (сезон 02) (Жан Де Сегонзак и др.) [2012, драма, криминал, BDRip] [720p] [DVO (NewStudio)]+[MVO (Sony Turbo)]+[Eng]+[Sub Rus, Eng] торрент без регистрации

 
Статистика раздачи
Размер:  25,61 GB   |    Скачан:  111 раз
Сидов:  1  [  0 KB/s  ]  
 
Автор Сообщение

МихаНЕзатор

[] 

Информация о сериале
Название: Босс
Оригинальное название: Boss
Год выхода: 2012
Жанр: драма, криминал
Автор идеи: Фарад Сафиниа /Farhad Safinia/
Режиссеры: Жан Де Сегонзак /Jean de Segonzac/, Марио Ван Пиблз /Mario Van Peebles/, Джим МакКэй /Jim McKay/ и др.

В ролях: Келси Грэммер /Kelsey Grammer/, Конни Нильсен /Connie Nielsen/, Ханна Уэр /Hannah Ware/, Джефф Хефнер /Jeff Hephner/, Кэтлин Робертсон /Kathleen Robertson/, Мартин Донован /Martin Donovan/, Трой Гэрити /Troy Garity/, Ротими /Rotimi/, Ти-Ай /T.I./, Санаа Лэтэн /Sanaa Lathan/ и др.

О сериале: Сюжет рассказывает о мэре Чикаго, страдающем тяжелым психическим заболеванием и, в результате, нарушениями памяти и рассудка, но окружающие, включая и его жену, об этом не догадываются.

Релиз от:
Рип от DON!

Страны: США
Студии: Lionsgate Television / Grammnet Productions / Roya Productions и др.
Продолжительность: 10 x ~ 00:55:00
Перевод:
Профессиональный (двухголосый, закадровый) - NewStudio
Профессиональный (многоголосый, закадровый) - Sony Turbo

Файл
Кодек: H.264
Качество: BDRip 720p
Видео: 1280x720 at 23.976 fps, x264@L4.1, crf, ~4500 kbps avg
Аудио#1: Russian: 48 kHz, AC3, 3/2 (L,C,R,l,r) + LFE ch, ~640.00 kbps avg |Двухголосый закадровый, NewStudio|
Аудио#2: Russian: 48 kHz, AC3, 2/0 (L,R) ch, ~192.00 kbps avg |Многоголосый закадровый, Sony Turbo|
Аудио#3: English: 48 kHz, AC3, 3/2 (L,C,R,l,r) + LFE ch, ~640.00 kbps avg |Оригинал|
Субтитры: Russian (Full - Илья Белкин), English (SDH)

АНОНСЫ ПОПУЛЯРНЫХ РАЗДАЧ
General
Complete name : Boss.S02E01.720p.BDRip.HDCLUB.mkv
Format : Matroska
Format version : Version 2
File size : 2.48 GiB
Duration : 57mn 23s
Overall bit rate : 6 199 Kbps
Encoded date : UTC 2013-05-16 12:23:52
Writing application : mkvmerge v5.8.0 ('No Sleep / Pillow') built on Sep 2 2012 15:37:04
Writing library : libebml v1.2.3 + libmatroska v1.3.0

Video
ID : 1
Format : AVC
Format/Info : Advanced Video Codec
Format profile : High@L4.1
Format settings, CABAC : Yes
Format settings, ReFrames : 9 frames
Codec ID : V_MPEG4/ISO/AVC
Duration : 57mn 23s
Bit rate : 4 604 Kbps
Width : 1 280 pixels
Height : 720 pixels
Display aspect ratio : 16:9
Frame rate mode : Constant
Frame rate : 23.976 fps
Color space : YUV
Chroma subsampling : 4:2:0
Bit depth : 8 bits
Scan type : Progressive
Bits/(Pixel*Frame) : 0.208
Stream size : 1.85 GiB (74%)
Title : Boss.S02.720p.BluRay.DD5.1.x264-DON
Writing library : x264 core 130 r2273 b3065e6
Encoding settings : cabac=1 / ref=9 / deblock=1:-3:-3 / analyse=0x3:0x133 / me=umh / subme=9 / psy=1 / psy_rd=0.95:0.00 / mixed_ref=1 / me_range=32 / chroma_me=1 / trellis=2 / 8x8dct=1 / cqm=0 / deadzone=6,6 / fast_pskip=0 / chroma_qp_offset=-2 / threads=9 / lookahead_threads=1 / sliced_threads=0 / nr=0 / decimate=0 / interlaced=0 / bluray_compat=0 / constrained_intra=0 / bframes=8 / b_pyramid=2 / b_adapt=2 / b_bias=0 / direct=3 / weightb=1 / open_gop=0 / weightp=2 / keyint=250 / keyint_min=23 / scenecut=40 / intra_refresh=0 / rc=crf / mbtree=0 / crf=17.0 / qcomp=0.75 / qpmin=0 / qpmax=40 / qpstep=4 / ip_ratio=1.20 / pb_ratio=1.10 / aq=1:0.75
Language : English
Default : Yes
Forced : No
Color range : Limited
Matrix coefficients : BT.709

Audio #1
ID : 2
Format : AC-3
Format/Info : Audio Coding 3
Mode extension : CM (complete main)
Format settings, Endianness : Big
Codec ID : A_AC3
Duration : 57mn 23s
Bit rate mode : Constant
Bit rate : 640 Kbps
Channel(s) : 6 channels
Channel positions : Front: L C R, Side: L R, LFE
Sampling rate : 48.0 KHz
Compression mode : Lossy
Stream size : 263 MiB (10%)
Title : DVO NewStudio
Language : Russian
Default : Yes
Forced : No

Audio #2
ID : 3
Format : AC-3
Format/Info : Audio Coding 3
Mode extension : CM (complete main)
Format settings, Endianness : Big
Codec ID : A_AC3
Duration : 57mn 23s
Bit rate mode : Constant
Bit rate : 192 Kbps
Channel(s) : 2 channels
Channel positions : Front: L R
Sampling rate : 48.0 KHz
Compression mode : Lossy
Stream size : 78.8 MiB (3%)
Title : MVO Sony Turbo
Language : Russian
Default : No
Forced : No

Audio #3
ID : 4
Format : AC-3
Format/Info : Audio Coding 3
Mode extension : CM (complete main)
Format settings, Endianness : Big
Codec ID : A_AC3
Duration : 57mn 23s
Bit rate mode : Constant
Bit rate : 640 Kbps
Channel(s) : 6 channels
Channel positions : Front: L C R, Side: L R, LFE
Sampling rate : 48.0 KHz
Compression mode : Lossy
Stream size : 263 MiB (10%)
Language : English
Default : No
Forced : No

Text #1
ID : 5
Format : ASS
Codec ID : S_TEXT/ASS
Codec ID/Info : Advanced Sub Station Alpha
Compression mode : Lossless
Title : volverine73
Language : Russian
Default : No
Forced : No

Text #2
ID : 6
Format : UTF-8
Codec ID : S_TEXT/UTF8
Codec ID/Info : UTF-8 Plain Text
Language : English
Default : No
Forced : No
01. Louder Than Words / Громче, чем слова
02. Through and Through / Насквозь
03. Ablution / Очищение
04. Redemption / Искупление
05. Mania / Мания
06. Backflash / Новая вспышка
07. The Conversation / Разговор
08. Consequence / Следствие
09. Clinch / Захват
10. True Enough / Правда
ЦитатаКто-то писал:
Работа с дорожкой № 1 и субтитрами - markin scor (HDCLUB) - за чистые голоса спасибо Мосенька.
Работа с дорожкой № 2 - veryserg (To4ka).
Над релизом NewStudio работали - перевод: Илья Белкин, мед. консультант: Knopf, озвучка: БЯКО Рекордс (Константин Погодаев и Анна Тух).
В переводе NewStudio и субтитрах присутствует ненормативная лексика.



Скачать Босс.Boss.(сезон.02).(Жан.Де.Сегонзак.и.др.).[2012.драма.криминал.BDRip].[720p].[DVO.(NewStudio)]+[MVO.(Sony.Turbo)]+[Eng]+[Sub.Rus.Eng].torrent без регистрации
Золото ЗОЛОТАЯ РАЗДАЧА! СКАЧАННОЕ НЕ ЗАСЧИТЫВАЕТСЯ! Золото
Дата: Зарегистрирован   [ Тип: внутренний ] Как тут cкачать?
MAGNET ссылка
MAGNET ссылка


Скачать .torrent

65 KB

Статус: проверено DHT
Скачан: торрент - 111 раз, раздача полностью - 30 раз
Размер: 25,61 GB
Оценка:  - (Голосов: 0)
Поблагодарили: 0
Поделиться ссылкой на эту раздачу с друзьями:
В контактеFacebookОдноклассникиTwitterLivejournalМой МирLiveinternet
 

 
Показать сообщения:    


Вы не можете начинать темы
Вы не можете отвечать на сообщения
Вы не можете редактировать свои сообщения
Вы не можете удалять свои сообщения
Вы не можете голосовать в опросах
Вы не можете прикреплять файлы к сообщениям
Вы можете скачивать файлы