Loading...
Error

Скачать Все круто / Running Cool (Беверли Себастьан, Ферд Себастьян) [1993, боевик, DVDRip] [AVO (Дохалов)]+[Оригинал] торрент без регистрации

 
Статистика раздачи
Размер:  1,46 GB   |    Скачан:  99 раз

Полного источника не было: 29 минут

 
Автор Сообщение

Marsianka

[] 



Страна: США
Производство:Sebastian International Pictures
Жанр: боевик
Год выпуска: 1993
Продолжительность: 01:45:55
Перевод: Авторский (Дохалов)
Оригинальная аудиодорожка: Английская
Режиссер: Беверли Себастьан, Ферд Себастьян
В ролях: Эндрю Дивофф, Пол Глисон, Джеймс Гэммон, Трэйси Себастьян, Диди Пфайффер, Арлен Дин Снайдер, Бабба Бэйкер, Арни Кокс, Кэролин Гэндрон

Описание: Байкер по кличке Боун, вместе со своим другом Медведем отправляется в маленький городок Южной Калифорнии, чтобы помочь своему давнему другу по кличке «железная задница», у которого начались проблемы с местными бизнесменами. Дело в том, что уже престарелый байкер живет в очень живописном месте, где ещё сохранилась нетронутая природа, а местный бизнесмен по фамилии Блю пытается прибрать к рукам все эти территории. С его подачи из этих мест уже уехало много народу, но старый байкер решил не сдаваться и отстоять свое прав жить там, где хочет. Тогда Блю и его люди решают прибегнуть к незаконным методам решения своей проблемы…



Исходник: DVD5 R1
Тип релиза: DVDRip
Контейнер: AVI
Видео: 640x480 (1.33:1), 23.976 fps, XviD MPEG-4 ~1318 kbps avg, 0.18 bit/pixel
Аудио 1: 48 kHz, AC3 Dolby Digital, 2/0 (L,R) ch, ~192 kbps (русский)
Аудио 2: 48 kHz, AC3 Dolby Digital, 3/2 (L,R) ch, ~448 kbps (английский)


Общее
Полное имя : D:ААА2Всё круто.avi
Формат : AVI
Формат/Информация : Audio Video Interleave
Размер файла : 1,46 Гбайт
Продолжительность : 1 ч. 45 м.
Общий поток : 1973 Кбит/сек
Программа кодирования : VirtualDubMod 1.5.10.2 (build 2540/release)
Библиотека кодирования : VirtualDubMod build 2540/release

Видео
Идентификатор : 0
Формат : MPEG-4 Visual
Профиль формата : Advanced Simple@L5
Параметр BVOP формата : 2
Параметр QPel формата : Нет
Параметр GMC формата : Без точки перехода
Параметр матрицы формата : Default (MPEG)
Режим смешивания : Сжатый битовый поток
Идентификатор кодека : XVID
Идентификатор кодека/Подсказка : XviD
Продолжительность : 1 ч. 45 м.
Битрейт : 1319 Кбит/сек
Ширина : 640 пикселей
Высота : 480 пикселей
Соотношение сторон : 4:3
Частота кадров : 23,976 кадра/сек
Цветовое пространство : YUV
Субдискретизация насыщенности : 4:2:0
Битовая глубина : 8 бит
Тип развёртки : Прогрессивная
Метод сжатия : С потерями
Бит/(Пиксели*Кадры) : 0.179
Размер потока : 999 Мбайт (67%)
Библиотека кодирования : XviD 1.2.1 (UTC 2008-12-04)

Аудио #1
Идентификатор : 1
Формат : AC-3
Формат/Информация : Audio Coding 3
Расширение режима : CM (complete main)
Параметр Endianness формата : Big
Идентификатор кодека : 2000
Продолжительность : 1 ч. 45 м.
Вид битрейта : Постоянный
Битрейт : 192 Кбит/сек
Каналы : 2 канала
Расположение каналов : Front: L R
Частота : 48,0 КГц
Битовая глубина : 16 бит
Метод сжатия : С потерями
Размер потока : 145 Мбайт (10%)
Выравнивание : Разделение по промежуткам
Продолжительность промежутка : 42 мс. (1,00 видеокадр)
Время предзагрузки промежутка : 500 мс.

Аудио #2
Идентификатор : 2
Формат : AC-3
Формат/Информация : Audio Coding 3
Расширение режима : CM (complete main)
Параметр Endianness формата : Big
Идентификатор кодека : 2000
Продолжительность : 1 ч. 45 м.
Вид битрейта : Постоянный
Битрейт : 448 Кбит/сек
Каналы : 6 каналов
Расположение каналов : Front: L C R, Side: L R, LFE
Частота : 48,0 КГц
Битовая глубина : 16 бит
Метод сжатия : С потерями
Задержка видео : 12 мс.
Размер потока : 339 Мбайт (23%)
Выравнивание : Разделение по промежуткам
Продолжительность промежутка : 42 мс. (1,00 видеокадр)
Время предзагрузки промежутка : 500 мс.
Релиз:



Скачать Все.круто.Running.Cool.(Беверли.Себастьан.Ферд.Себастьян).[1993.боевик.DVDRip].[AVO.(Дохалов)]+[Оригинал].torrent без регистрации
Золото ЗОЛОТАЯ РАЗДАЧА! СКАЧАННОЕ НЕ ЗАСЧИТЫВАЕТСЯ! Золото
Дата: Зарегистрирован   [ Тип: внутренний ] Как тут cкачать?
MAGNET ссылка
MAGNET ссылка


Скачать .torrent

15 KB

Статус: проверено DHT
Скачан: торрент - 99 раз, раздача полностью - 7 раз
Размер: 1,46 GB
Оценка:  - (Голосов: 0)
Поблагодарили: 0
Поделиться ссылкой на эту раздачу с друзьями:
В контактеFacebookОдноклассникиTwitterLivejournalМой МирLiveinternet
 

 
Показать сообщения:    


Вы не можете начинать темы
Вы не можете отвечать на сообщения
Вы не можете редактировать свои сообщения
Вы не можете удалять свои сообщения
Вы не можете голосовать в опросах
Вы не можете прикреплять файлы к сообщениям
Вы можете скачивать файлы