Loading...
Error

Скачать Планкетт и Маклейн / Plunkett and MaCleane (Джэйк Скотт) [1999, приключения, драма, HDTVRip] [MVO] торрент без регистрации

 
Статистика раздачи
Размер:  1,36 GB   |    Скачан:  111 раз
Сидов:  1  [  0 KB/s  ]  
 
Автор Сообщение

Marsianka

[] 

Информация о фильме
Название: Планкетт и Маклейн
Оригинальное название: Plunkett and MaCleane
Год выхода: 1999
Жанр: приключения, драма
Режиссер: Джэйк Скотт / Jake Scott
В ролях: Лив Тайлер, Джонни Ли Миллер, Айэйн Робертсон, Роберт Карлайл, Кен Стотт, Томми Фланаган, Джеймс Торнтон, Теренс Ригби, Кристиан Камарго, Нив МакИнтош, Мэтт Лукас, Дэвид Уоллиямс, Александр Армстронг, Ян Кузелка, Владимир Яворски, Алан Камминг, Майкл Гэмбон, Карел Добры, Николас Фаррелл, Гордон Ловитт, Клер Рашбрук, Тим МакМаллан, Карел Полисенский, Джефф Наттолл, Мартин Серен, Дин Кук, Аннабел Брукс, Тони Модсли, Алекс Палмер, Сьюзан Порретт, Никола МакОлифф, Анна Кивени, Жак Мату, Майкл Калкин, Мюррэй Лэклэн Янг, Дейв Аткинз

О фильме:
Англия, XVIII век. Уилл Планкетт — обыкновенный бездельник-простолюдин, променявший профессию аптекаря на романтику большой дороги. Джеймс Маклейн — бывший аристократ, погрязший в долгах и потому вынужденный круто изменить свою жизнь. Вместе Планкетт и Маклейн — неуловимые и никем не превзойденные разбойники, осуществляющие самые невероятные авантюры и ограбления. Единственная драгоценность, которая может оказаться не по зубам беспечным `рыцарям ножа и пистолета`, — красавица Ребекка, дочь главного королевского прокурора…



Страна: Великобритания
Продолжительность: 01:34:19
Перевод: Профессиональный (многоголосый закадровый) 1 канал

Файл
Кодек: XviD
Качество: HDTVRip
Видео: 704x400, 25.000 fps, XviD build 73 ~1870 kbps
Аудио: AC3, 48.0 KHz, 2 ch, 192 Kbps
Общее
Полное имя : Plunkett.and.MaCleane.1999.HDTVRip.avi
Формат : AVI
Формат/Информация : Audio Video Interleave
Размер файла : 1,36 Гбайт
Продолжительность : 1 ч. 34 м.
Общий поток : 2072 Кбит/сек
Программа кодирования : VirtualDubMod 1.5.10.3 | www.virtualdub-fr.org || (build 2550/release)
Библиотека кодирования : VirtualDubMod build 2550/release

Видео
Идентификатор : 0
Формат : MPEG-4 Visual
Профиль формата : Advanced Simple@L5
Параметр BVOP формата : 1
Параметр QPel формата : Нет
Параметр GMC формата : Без точки перехода
Параметр матрицы формата : Выборочная
Идентификатор кодека : XVID
Идентификатор кодека/Подсказка : XviD
Продолжительность : 1 ч. 34 м.
Битрейт : 1870 Кбит/сек
Ширина : 704 пикс.
Высота : 400 пикс.
Соотношение сторон : 16:9
Частота кадров : 25,000 кадр/сек
Цветовое пространство : YUV
Подвыборка цветности : 4:2:0
Битовая глубина : 8 бит
Тип развёртки : Прогрессивная
Метод сжатия : С потерями
Бит/(Пиксели*Кадры) : 0.266
Размер потока : 1,23 Гбайт (90%)
Библиотека кодирования : XviD 73

Аудио
Идентификатор : 1
Формат : AC-3
Формат/Информация : Audio Coding 3
Расширение режима : CM (complete main)
Идентификатор кодека : 2000
Продолжительность : 1 ч. 34 м.
Вид битрейта : Постоянный
Битрейт : 192 Кбит/сек
Канал(ы) : 2 канала(ов)
Расположение каналов : Front: L R
Частота : 48,0 КГц
Битовая глубина : 16 бит
Метод сжатия : С потерями
Размер потока : 130 Мбайт (9%)
Выравнивание : Разделение по промежуткам
Продолжительность промежутка : 40 мс. (1,00 видеокадр)
Время предзагрузки промежутка : 500 ms
Релиз от: Leon-masl



Скачать Планкетт.и.Маклейн.Plunkett.and.MaCleane.(Джэйк.Скотт).[1999.приключения.драма.HDTVRip].[MVO].torrent без регистрации
Золото ЗОЛОТАЯ РАЗДАЧА! СКАЧАННОЕ НЕ ЗАСЧИТЫВАЕТСЯ! Золото
Дата: Зарегистрирован   [ Тип: внутренний ] Как тут cкачать?
MAGNET ссылка
MAGNET ссылка


Скачать .torrent

15 KB

Статус: проверено DHT
Скачан: торрент - 111 раз, раздача полностью - 9 раз
Размер: 1,36 GB
Оценка:  - (Голосов: 0)
Поблагодарили: 0
Поделиться ссылкой на эту раздачу с друзьями:
В контактеFacebookОдноклассникиTwitterLivejournalМой МирLiveinternet
 

 
Показать сообщения:    


Вы не можете начинать темы
Вы не можете отвечать на сообщения
Вы не можете редактировать свои сообщения
Вы не можете удалять свои сообщения
Вы не можете голосовать в опросах
Вы не можете прикреплять файлы к сообщениям
Вы можете скачивать файлы