Loading...
Error

Скачать Настоящий Детектив / True Detective (сезон 02) (Джастин Лин) [2015, драма, криминал, HDTVRip-AVC] [MVO (Amedia)]+[Eng]+[Sub Rus, Eng] торрент без регистрации

 
Статистика раздачи
Размер:  6,54 GB   |    Скачан:  312 раз
Сидов:  1  [  0 KB/s  ]  
 
Автор Сообщение

МихаНЕзатор

[] 

Информация о фильме:
✦ Год выхода: 2015
✦ Жанр: Драма, криминал
✦ Название: Настоящий детектив
✦ Оригинальное название: True Detective
✦ Режиссер: Джастин Лин, Дэниэл Эттиэс, Янус Мец Педерсен, Мигель Сапочник

✦ В ролях: Колин Фаррелл, Рэйчел МакАдамс, Тейлор Китч, Винс Вон, У. Эрл Браун, Крис Керсон, К.С. Ли, Кристофер Джеймс Бэйкер, Майкл Ирби, Тимоти В. Мерфи, Адриа Архона, Миранда Рэй Майо, Келли Райлли

Описание фильма: Мы живем в мире, который заслуживаем. В новом сезоне культового сериала зрителей ждут новое расследование и новые герои. Мрачное убийство, произошедшее в Калифорнии объединяет четырех персонажей в исполнении Колина Фаррелла, Рэйчел МакАдамс, Тейлора Китча и Винса Вона. Они объединяются, чтобы начать охоту на таинственного убийцу и разоблачить тех, чьи приказы он выполняет.



✦ Страна: США
✦ Продолжительность: ~ 00:59:00 серия
✦ Перевод: Профессиональный (многоголосый, закадровый) - Amedia

Информация о файле:
✦ Формат: MKV
✦ Качество: HDTVRip-AVC
✦ Видео: High@L4.1, ~ 1300 kbps, 1024x572
✦ Аудио: AC3, 6 ch, 384 kbps
✦ Субтитры: Нет

АНОНСЫ ПОПУЛЯРНЫХ РАЗДАЧ


Торрент обновлён, добавлена 8-я серия!
General
Unique ID : 49839128075845593035663883231542880276 (0x257EAABB0786C1D6B06CDB5B14BFA814)
Complete name : F:СериалыНастоящий Детектив [S02] (2015) HDTVRIP_AVCTrue.Detective.S02E01.HDTVRIP_AVC.[-=DoMiNo=-].mkv
Format : Matroska
Format version : Version 4 / Version 2
File size : 815 MiB
Duration : 1h 0mn
Overall bit rate : 1 892 Kbps
Writing application : XviD4PSP 7.0.148
Writing library : Lavf56.25.101
ENCODING_INFO : MATROSKA,WEBM > MKV 720p / MPEG2 > X264 CRF 19,0 Custom / AC3 > COPY

Video
ID : 1
Format : AVC
Format/Info : Advanced Video Codec
Format profile : High@L4.1
Format settings, CABAC : Yes
Format settings, ReFrames : 10 frames
Codec ID : V_MPEG4/ISO/AVC
Duration : 1h 0mn
Bit rate : 1 471 Kbps
Width : 1 024 pixels
Height : 572 pixels
Display aspect ratio : 16:9
Frame rate mode : Constant
Frame rate : 29.970 fps
Color space : YUV
Chroma subsampling : 4:2:0
Bit depth : 8 bits
Scan type : Progressive
Bits/(Pixel*Frame) : 0.084
Stream size : 633 MiB (78%)
Writing library : x264 core 146 r2538M 121396c
Encoding settings : cabac=1 / ref=10 / deblock=1:-3:-3 / analyse=0x3:0x133 / me=umh / subme=10 / psy=1 / psy_rd=1,00:0,10 / mixed_ref=1 / me_range=32 / chroma_me=1 / trellis=2 / 8x8dct=1 / cqm=0 / deadzone=21,11 / fast_pskip=0 / chroma_qp_offset=-3 / threads=12 / lookahead_threads=2 / sliced_threads=0 / nr=0 / decimate=1 / interlaced=0 / bluray_compat=0 / constrained_intra=0 / bframes=9 / b_pyramid=2 / b_adapt=2 / b_bias=0 / direct=1 / weightb=1 / open_gop=0 / weightp=2 / keyint=290 / keyint_min=29 / scenecut=40 / intra_refresh=0 / rc=crf / mbtree=0 / crf=19,0 / qcomp=0,60 / qpmin=19 / qpmax=69 / qpstep=4 / ip_ratio=1,40 / pb_ratio=1,30 / aq=1:1,00
Language : English
Default : Yes
Forced : No

Audio
ID : 2
Format : AC-3
Format/Info : Audio Coding 3
Mode extension : CM (complete main)
Format settings, Endianness : Big
Codec ID : A_AC3
Duration : 1h 0mn
Bit rate mode : Constant
Bit rate : 384 Kbps
Channel(s) : 6 channels
Channel positions : Front: L C R, Side: L R, LFE
Sampling rate : 48.0 KHz
Bit depth : 32 bits
Compression mode : Lossy
Stream size : 165 MiB (20%)
Language : Russian
Default : Yes
Forced : No



Скачать Настоящий.Детектив.True.Detective.(сезон.02).(Джастин.Лин).[2015.драма.криминал.HDTVRip-AVC].[MVO.(Amedia)]+[Eng]+[Sub.Rus.Eng].torrent без регистрации
Золото ЗОЛОТАЯ РАЗДАЧА! СКАЧАННОЕ НЕ ЗАСЧИТЫВАЕТСЯ! Золото
Дата: Зарегистрирован   [ Тип: внутренний ] Как тут cкачать?
MAGNET ссылка
MAGNET ссылка


Скачать .torrent

18 KB

Статус: проверено DHT
Скачан: торрент - 312 раз, раздача полностью - 110 раз
Размер: 6,54 GB
Оценка:  - (Голосов: 0)
Поблагодарили: 2
Поделиться ссылкой на эту раздачу с друзьями:
В контактеFacebookОдноклассникиTwitterLivejournalМой МирLiveinternet
 

 
Показать сообщения:    


Вы не можете начинать темы
Вы не можете отвечать на сообщения
Вы не можете редактировать свои сообщения
Вы не можете удалять свои сообщения
Вы не можете голосовать в опросах
Вы не можете прикреплять файлы к сообщениям
Вы можете скачивать файлы