Loading...
Error

Скачать Бойцовая рыбка / Rumble Fish (Френсис Форд Коппола) [1983, драма, BDRip-AVC] [MVO]x2+[Sub]x2 торрент без регистрации

 
Статистика раздачи
Размер:  2,68 GB   |    Скачан:  114 раз

Полного источника не было: 28 минут

 
Автор Сообщение

Marsianka

[] 

Бойцовая рыбка
| Rumble Fish |


Информация о фильме
Название: Бойцовая рыбка
Оригинальное название: Rumble Fish
Год выхода: 1983
Жанр: драма
Режиссер: Френсис Форд Коппола
В ролях: Мэтт Диллон, Микки Рурк, Дайан Лэйн, Дэннис Хоппер, Дайана Скаруид, Винсент Спано, Николас Кейдж, Крис Пенн, Лоуренс Фишборн, Уильям Смит, Майкл Хиггинс, Гленн Уитроу, Том Уэйтс, Херб Райс, Нона Мэннинг, София Коппола, Джан-Карло Коппола, Эмметт Браун, Трейси Уолтер, Лэнс Гуечия, Боб Марас, Дж.Т. Тернер, Керстен Хейден, Карен Паркер, Кристи Сомерс

О фильме:
В центре фильма – юный Расти Джеймс, лидер небольшой преступной банды промышленного городка. Брат Расти, Мотоцикл-бой, появляется в сцене криминальной разборки банды Расти и его врагов, нарушив тем самым установленное двумя месяцами ранее обещание не ввязываться в преступную жизнь городка. Последующие события в корне изменили мир Расти, но к концу фильма, следуя примеру своего брата, он способен сбежать от роли в игре, в которую его вовлекают. Фильм примечателен своим авангардным стилем: доминирующая чёрно-белая стилистика сменяется цветными вкраплениями, используются глубокий фокус и эффекты провалов во времени, чтобы передать особенности точек зрения главных героев. Бойцовые рыбки, вынесенные в название ленты, даны в цвете, хотя и плавают в чёрно-белом аквариуме.



Страна: США
Студия: Hotweather Films, Zoetrope Studios
Продолжительность: 01:34:13
Перевод: Профессиональный многоголосый

Файл
Кодек: h.264
Качество: BDRip-AVC
Видео: 3299 Кбит/с, 1024x554, 23.976 кадр/с

• №1: Русский (АС3, 2 ch, 192 Кбит/с) Профессиональный многоголосый [R5]
• №2: Русский (АС3, 2 ch, 192 Кбит/с) Профессиональный многоголосый [ОРТ]
• №3: Английский (АС3, 6 ch, 384 Кбит/с)

Субтитры: Русские, английские

Полное имя : Rumble.Fish.1983.x264.BDRip-AVC.0ptimus.mkv
Формат : Matroska
Версия формата : Version 2
Размер файла : 2,68 Гбайт
Продолжительность : 1 ч. 34 м.
Общий поток : 4065 Кбит/сек
Название фильма : Бойцовая рыбка | Rumble Fish [1983] -= BDRip (AVC) by 0ptimus =-
Дата кодирования : UTC 2014-11-29 06:40:07
Программа кодирования : mkvmerge v6.6.0 ('The Edge Of The In Between') built on Dec 1 2013 17:55:00
Библиотека кодирования : libebml v1.3.0 + libmatroska v1.4.1

Видео
Идентификатор : 1
Формат : AVC
Формат/Информация : Advanced Video Codec
Профиль формата : High@L4.1
Параметр CABAC формата : Да
Параметр ReFrames формата : 9 кадров
Идентификатор кодека : V_MPEG4/ISO/AVC
Продолжительность : 1 ч. 34 м.
Битрейт : 3299 Кбит/сек
Ширина : 1024 пикселя
Высота : 554 пикселя
Соотношение сторон : 1,85:1
Режим частоты кадров : Постоянный
Частота кадров : 23,976 кадра/сек
Цветовое пространство : YUV
Субдискретизация насыщенности : 4:2:0
Битовая глубина : 8 бит
Тип развёртки : Прогрессивная
Бит/(Пиксели*Кадры) : 0.243
Размер потока : 2,12 Гбайт (79%)
Заголовок : Rip by 0ptimus
Библиотека кодирования : x264 core 133 r2334 a3ac64b
Настройки программы : cabac=1 / ref=9 / deblock=1:-2:-1 / analyse=0x3:0x113 / me=umh / subme=11 / psy=1 / psy_rd=1.00:0.20 / mixed_ref=1 / me_range=32 / chroma_me=1 / trellis=2 / 8x8dct=1 / cqm=0 / deadzone=21,11 / fast_pskip=0 / chroma_qp_offset=-3 / threads=3 / lookahead_threads=1 / sliced_threads=0 / nr=0 / decimate=0 / interlaced=0 / bluray_compat=0 / constrained_intra=0 / bframes=11 / b_pyramid=2 / b_adapt=2 / b_bias=0 / direct=3 / weightb=1 / open_gop=0 / weightp=2 / keyint=240 / keyint_min=23 / scenecut=40 / intra_refresh=0 / rc_lookahead=40 / rc=2pass / mbtree=0 / bitrate=3299 / ratetol=1.0 / qcomp=0.60 / qpmin=0 / qpmax=69 / qpstep=4 / cplxblur=20.0 / qblur=0.5 / vbv_maxrate=50000 / vbv_bufsize=50000 / nal_hrd=none / ip_ratio=1.40 / pb_ratio=1.30 / aq=1:1.00
Язык : English
Default : Да
Forced : Да

Аудио #1
Идентификатор : 2
Формат : AC-3
Формат/Информация : Audio Coding 3
Расширение режима : CM (complete main)
Параметр Endianness формата : Big
Идентификатор кодека : A_AC3
Продолжительность : 1 ч. 34 м.
Вид битрейта : Постоянный
Битрейт : 192 Кбит/сек
Каналы : 2 канала
Расположение каналов : Front: L R
Частота : 48,0 КГц
Битовая глубина : 16 бит
Метод сжатия : С потерями
Размер потока : 129 Мбайт (5%)
Заголовок : Многоголосый AC3 2.0 @ 192 kbps
Язык : Russian
Default : Да
Forced : Да

Аудио #2
Идентификатор : 3
Формат : AC-3
Формат/Информация : Audio Coding 3
Расширение режима : CM (complete main)
Параметр Endianness формата : Big
Идентификатор кодека : A_AC3
Продолжительность : 1 ч. 34 м.
Вид битрейта : Постоянный
Битрейт : 192 Кбит/сек
Каналы : 2 канала
Расположение каналов : Front: L R
Частота : 48,0 КГц
Битовая глубина : 16 бит
Метод сжатия : С потерями
Размер потока : 129 Мбайт (5%)
Заголовок : Многоголосый [ОРТ] AC3 2.0 @ 192 kbps
Язык : Russian
Default : Нет
Forced : Нет

Аудио #3
Идентификатор : 4
Формат : AC-3
Формат/Информация : Audio Coding 3
Расширение режима : CM (complete main)
Параметр Endianness формата : Big
Идентификатор кодека : A_AC3
Продолжительность : 1 ч. 34 м.
Вид битрейта : Постоянный
Битрейт : 384 Кбит/сек
Каналы : 6 каналов
Расположение каналов : Front: L C R, Side: L R, LFE
Частота : 48,0 КГц
Битовая глубина : 16 бит
Метод сжатия : С потерями
Размер потока : 259 Мбайт (9%)
Заголовок : AC3 5.1 @ 384 kbps
Язык : English
Default : Нет
Forced : Нет

Текст #1
Идентификатор : 5
Формат : UTF-8
Идентификатор кодека : S_TEXT/UTF8
Идентификатор кодека/Информация : UTF-8 Plain Text
Язык : Russian
Default : Нет
Forced : Нет

Текст #2
Идентификатор : 6
Формат : UTF-8
Идентификатор кодека : S_TEXT/UTF8
Идентификатор кодека/Информация : UTF-8 Plain Text
Заголовок : SDH
Язык : English
Default : Нет
Forced : Нет

Меню
00:00:00.000 : en:Billiards
00:03:45.516 : en:Patty
00:12:25.453 : en:Rumble
00:18:39.326 : en:Homesick
00:23:22.025 : en:Tender Distractions
00:28:53.022 : en:Father
00:32:51.135 : en:Wild Night
00:37:51.269 : en:Pied Piper
00:41:49.506 : en:Nighttime Prowl
00:54:15.460 : en:Dead End
00:58:40.683 : en:Nothing Personal
01:09:36.255 : en:Mirror Image
01:18:58.316 : en:Waiting for What?
01:28:47.530 : en:The Ocean
Релиз от:



Скачать Бойцовая.рыбка.Rumble.Fish.(Френсис.Форд.Коппола).[1983.драма.BDRip-AVC].[MVO]x2+[Sub]x2.torrent без регистрации
Золото ЗОЛОТАЯ РАЗДАЧА! СКАЧАННОЕ НЕ ЗАСЧИТЫВАЕТСЯ! Золото
Дата: Зарегистрирован   [ Тип: внутренний ] Как тут cкачать?
MAGNET ссылка
MAGNET ссылка


Скачать .torrent

28 KB

Статус: проверено DHT
Скачан: торрент - 114 раз, раздача полностью - 8 раз
Размер: 2,68 GB
Оценка:  - (Голосов: 0)
Поблагодарили: 1
Поделиться ссылкой на эту раздачу с друзьями:
В контактеFacebookОдноклассникиTwitterLivejournalМой МирLiveinternet
 

 
Показать сообщения:    


Вы не можете начинать темы
Вы не можете отвечать на сообщения
Вы не можете редактировать свои сообщения
Вы не можете удалять свои сообщения
Вы не можете голосовать в опросах
Вы не можете прикреплять файлы к сообщениям
Вы можете скачивать файлы