Loading...
Error

Скачать Смертельная ярость / Мертвый полицейский / Полицейский с того света / Dead Heat (Марк Голдблатт) [1988 г., боевик, фантастика, ужасы, комедия, BDRip-AVC] [MVO, AVO] торрент без регистрации

 
Статистика раздачи
Размер:  2,18 GB   |    Скачан:  138 раз
Сидов:  4  [  0 KB/s  ]  
 
Автор Сообщение

durik

[] 

Смертельная ярость / Мертвый полицейский / Полицейский с того света / Dead Heat

Информация о фильме
Название: Смертельная ярость / Мертвый полицейский / Полицейский с того света
Оригинальное название: Dead Heat
Год выхода: 1988
Жанр: боевик, фантастика, ужасы, комедия
Режиссер: Марк Голдблатт
В ролях: Трит Уильямс, Джо Пископо, Линдси Фрост, Дэррен МакГэвин, Винсент Прайс, Clare Kirkconnell, Кей Люк, Роберт Пикардо, Мел Стюарт, профессор Тору Танака

О фильме:
Добросовестный полицейский погибает на боевом посту, пытаясь разоблачить банду ученых, оживляющих трупы, которые затем безбоязненно грабят банки.
Подвергнувшись случайно той же обработке, мертвый полицейский доводит дело до конца, призвав к ответу своих обидчиков.



Страна: США
Студия: Helpern / Meltzer
Продолжительность: 01:23:38
Перевод:
1. Профессиональный (многоголосый закадровый) [НТВ+]
2. Авторский (одноголосый закадровый) [Михалев]

Файл
Кодек: AVC
Качество: BDRip-AVC
Видео: 1024x552, 3150 kbps, 23,976 fps, 0,232 Bits/(Pixel*Frame)
Звук:
1. AC3, 48 kHz, 2 ch, 192 kbps - MVO
2. AC3, 48 kHz, 2 ch, 192 kbps - AVO
3. AC3, 48 kHz, 2 ch, 192 kbps - original (Eng)
Субтитры: Нет
General
Unique ID : 254558708181508580443134796624433860968 (0xBF82394F7CBFAF668550522064D95168)
Complete name : F:Dead.Heat.1988.BDRip-AVC_by_Bathory.mkv
Format : Matroska
Format version : Version 2
File size : 2.18 GiB
Duration : 1h 23mn
Overall bit rate : 3 726 Kbps
Encoded date : UTC 2015-07-16 23:42:10
Writing application : mkvmerge v7.7.0 ('Six Voices') 32bit built on Feb 28 2015 23:23:00
Writing library : libebml v1.3.1 + libmatroska v1.4.2
DURATION : 01:23:37.632000000
NUMBER_OF_FRAMES : 156801
NUMBER_OF_BYTES : 120423168
_STATISTICS_WRITING_APP : mkvmerge v7.7.0 ('Six Voices') 32bit built on Feb 28 2015 23:23:00
_STATISTICS_WRITING_DATE_UTC : 2015-07-16 23:42:10
_STATISTICS_TAGS : BPS DURATION NUMBER_OF_FRAMES NUMBER_OF_BYTES

Video
ID : 1
Format : AVC
Format/Info : Advanced Video Codec
Format profile : High@L4.1
Format settings, CABAC : Yes
Format settings, ReFrames : 11 frames
Codec ID : V_MPEG4/ISO/AVC
Duration : 1h 23mn
Bit rate : 3 150 Kbps
Width : 1 024 pixels
Height : 552 pixels
Display aspect ratio : 1.85:1
Frame rate mode : Constant
Frame rate : 23.976 fps
Color space : YUV
Chroma subsampling : 4:2:0
Bit depth : 8 bits
Scan type : Progressive
Bits/(Pixel*Frame) : 0.232
Stream size : 1.80 GiB (83%)
Writing library : x264 core 146 r2538 121396c
Encoding settings : cabac=1 / ref=11 / deblock=1:-3:-2 / analyse=0x3:0x133 / me=umh / subme=11 / psy=1 / psy_rd=1.15:0.15 / mixed_ref=1 / me_range=32 / chroma_me=1 / trellis=2 / 8x8dct=1 / cqm=0 / deadzone=21,11 / fast_pskip=0 / chroma_qp_offset=-3 / threads=12 / lookahead_threads=3 / sliced_threads=0 / nr=0 / decimate=1 / interlaced=0 / bluray_compat=0 / constrained_intra=0 / bframes=16 / b_pyramid=2 / b_adapt=2 / b_bias=0 / direct=3 / weightb=1 / open_gop=0 / weightp=2 / keyint=240 / keyint_min=23 / scenecut=40 / intra_refresh=0 / rc_lookahead=60 / rc=2pass / mbtree=1 / bitrate=3150 / ratetol=1.0 / qcomp=0.60 / qpmin=0 / qpmax=69 / qpstep=4 / cplxblur=20.0 / qblur=0.5 / vbv_maxrate=62500 / vbv_bufsize=78125 / nal_hrd=none / filler=0 / ip_ratio=1.40 / aq=1:1.00
Default : Yes
Forced : No

Audio #1
ID : 2
Format : AC-3
Format/Info : Audio Coding 3
Mode extension : CM (complete main)
Format settings, Endianness : Big
Codec ID : A_AC3
Duration : 1h 23mn
Bit rate mode : Constant
Bit rate : 192 Kbps
Channel(s) : 2 channels
Channel positions : Front: L R
Sampling rate : 48.0 KHz
Bit depth : 16 bits
Compression mode : Lossy
Stream size : 115 MiB (5%)
Language : Russian
Default : Yes
Forced : No

Audio #2
ID : 3
Format : AC-3
Format/Info : Audio Coding 3
Mode extension : CM (complete main)
Format settings, Endianness : Big
Codec ID : A_AC3
Duration : 1h 23mn
Bit rate mode : Constant
Bit rate : 192 Kbps
Channel(s) : 2 channels
Channel positions : Front: L R
Sampling rate : 48.0 KHz
Bit depth : 16 bits
Compression mode : Lossy
Stream size : 115 MiB (5%)
Language : Russian
Default : No
Forced : No

Audio #3
ID : 4
Format : AC-3
Format/Info : Audio Coding 3
Mode extension : CM (complete main)
Format settings, Endianness : Big
Codec ID : A_AC3
Duration : 1h 23mn
Bit rate mode : Constant
Bit rate : 192 Kbps
Channel(s) : 2 channels
Channel positions : Front: L R
Sampling rate : 48.0 KHz
Bit depth : 16 bits
Compression mode : Lossy
Stream size : 115 MiB (5%)
Language : English
Default : No
Forced : No
Релиз от:

Автор рипа: Bathory



Скачать Смертельная.ярость.Мертвый.полицейский.Полицейский.с.того.света.Dead.Heat.(Марк.Голдблатт).[1988.г.боевик.фантастика.ужасы.комедия.BDRip-AVC].[MVO.AVO].torrent без регистрации
Золото ЗОЛОТАЯ РАЗДАЧА! СКАЧАННОЕ НЕ ЗАСЧИТЫВАЕТСЯ! Золото
Дата: Зарегистрирован   [ Тип: внешний ] Как тут cкачать?
MAGNET ссылка
MAGNET ссылка


Скачать .torrent

12 KB

Статус: * не проверено
Скачан: торрент - 138 раз, раздача полностью - 12 раз
Размер: 2,18 GB
Оценка:  5 (Голосов: 1)
Поблагодарили: 3
Поделиться ссылкой на эту раздачу с друзьями:
В контактеFacebookОдноклассникиTwitterLivejournalМой МирLiveinternet
 

 
Показать сообщения:    


Вы не можете начинать темы
Вы не можете отвечать на сообщения
Вы не можете редактировать свои сообщения
Вы не можете удалять свои сообщения
Вы не можете голосовать в опросах
Вы не можете прикреплять файлы к сообщениям
Вы можете скачивать файлы