Loading...
Error

Скачать Полицейский 2000 года / TC 2000 (Т.Дж. Скотт / T.J. Scott) [1993, фантастика, боевик, DVDRip-AVC] [AVO] (Гаврилов) торрент без регистрации

 
Статистика раздачи
Размер:  1,47 GB   |    Скачан:  136 раз
Сидов:  1  [  0 KB/s  ]  
 
Автор Сообщение

leon030982

[] 


Полицейский 2000 года
TC 2000

Страна: США
Жанр: фантастика, боевик
Год выпуска: 1993
Продолжительность: 01:31:10
Перевод: Авторский (одноголосый закадровый) - Гаврилов
Cубтитры: нет
Режиссер: Т.Дж. Скотт / T.J. Scott
В ролях: Боло Йенг, Джалал Мерхи, Билли Блэнкс, Бобби Филлипс, Маттиас Хьюз, Келли Галлант, Гарри Мок, Рамсей Смит, М.Дж. Кенг

Описание:
Напарницу полицейского Джейсона Сторма, Зои, погибшую во время патрулирования выходов из подземного, обустроенного мира на мало пригодную для жизни поверхность Земли, превращают в абсолютно неуязвимого киборга-убийцу.
Джейсон узнает, что Зои запрограммирована взорвать бездействующую атомную станцию. Шеф полиции, возжелавший управлять всем миром, готов уничтожить вместе с преступниками все население Северной Америки. Для того, чтобы предотвратить катастрофу, Джейсон объединяет усилия с самым грозным и уважаемым боевиком одной из группировок, Сумаем…


Семпл: 18,2мб
Качество: {by big1987}
Формат видео: MKV
Видео: кодек: h.264, размер кадра: 696x570 @ 742x570, fps: 25, битрейт: 2108 Kbps, Bits/(Pixel*Frame): 0.213
Аудио: аудиокодек: AC3 2.0, 48 KHz, битрейт аудио: 192 кб/с - AVO, Гаврилов
Размер рипа: 1,46Gb
frame I:1428 Avg QP:13.80 size: 35246
frame P:33079 Avg QP:15.98 size: 19783
frame B:102247 Avg QP:18.25 size: 7204
Format : Matroska
Format version : Version 2
File size : 1.47 GiB
Duration : 1h 31mn
Overall bit rate : 2 302 Kbps
Movie name : Полицейский 2000 года [1993, DVDRip/AVC] || big1987
Encoded date : UTC 2012-05-21 07:16:51
Writing application : mkvmerge v5.5.0 ('Healer') built on Apr 24 2012 23:47:03
Writing library : libebml v1.2.3 + libmatroska v1.3.0
Video
ID : 1
Format : AVC
Format/Info : Advanced Video Codec
Format profile : High@L3.1
Format settings, CABAC : Yes
Format settings, ReFrames : 9 frames
Codec ID : V_MPEG4/ISO/AVC
Duration : 1h 31mn
Bit rate : 2 108 Kbps
Width : 696 pixels
Height : 570 pixels
Display aspect ratio : 4:3
Frame rate : 25.000 fps
Color space : YUV
Chroma subsampling : 4:2:0
Bit depth : 8 bits
Scan type : Progressive
Bits/(Pixel*Frame) : 0.213
Stream size : 1.31 GiB (90%)
Title : Полицейский 2000 года [1993, DVDRip/AVC] || big1987
Writing library : x264 core 124 r2197 69a0443
Encoding settings : cabac=1 / ref=9 / deblock=1:-3:-2 / analyse=0x3:0x133 / me=umh / subme=10 / psy=1 / psy_rd=1.00:0.20 / mixed_ref=1 / me_range=32 / chroma_me=1 / trellis=2 / 8x8dct=1 / cqm=0 / deadzone=21,11 / fast_pskip=0 / chroma_qp_offset=-3 / threads=6 / sliced_threads=0 / nr=0 / decimate=0 / interlaced=0 / bluray_compat=0 / constrained_intra=0 / bframes=6 / b_pyramid=2 / b_adapt=2 / b_bias=0 / direct=3 / weightb=1 / open_gop=0 / weightp=2 / keyint=250 / keyint_min=25 / scenecut=40 / intra_refresh=0 / rc=2pass / mbtree=0 / bitrate=2108 / ratetol=1.0 / qcomp=0.60 / qpmin=0 / qpmax=69 / qpstep=4 / cplxblur=20.0 / qblur=0.5 / ip_ratio=1.40 / pb_ratio=1.30 / aq=1:1.00
Language : English
Default : Yes
Forced : No
Audio
ID : 2
Format : AC-3
Format/Info : Audio Coding 3
Mode extension : CM (complete main)
Codec ID : A_AC3
Duration : 1h 31mn
Bit rate mode : Constant
Bit rate : 192 Kbps
Channel(s) : 2 channels
Channel positions : Front: L R
Sampling rate : 48.0 KHz
Bit depth : 16 bits
Compression mode : Lossy
Stream size : 125 MiB (8%)
Title : AVO {Гаврилов} [AC3 2.0@192kbps]
Language : Russian
Default : Yes
Forced : No
кач-во исходника хромает



Скачать Полицейский.2000.года.TC.2000.(Т.Дж.Скотт.T.J.Scott).[1993.фантастика.боевик.DVDRip-AVC].[AVO].(Гаврилов).torrent без регистрации
Золото ЗОЛОТАЯ РАЗДАЧА! СКАЧАННОЕ НЕ ЗАСЧИТЫВАЕТСЯ! Золото
Дата: Зарегистрирован   [ Тип: внутренний ] Как тут cкачать?
MAGNET ссылка
MAGNET ссылка


Скачать .torrent

15 KB

Статус: проверено DHT
Скачан: торрент - 136 раз, раздача полностью - 30 раз
Размер: 1,47 GB
Оценка:  - (Голосов: 0)
Поблагодарили: 1
Поделиться ссылкой на эту раздачу с друзьями:
В контактеFacebookОдноклассникиTwitterLivejournalМой МирLiveinternet
 

 
Показать сообщения:    


Вы не можете начинать темы
Вы не можете отвечать на сообщения
Вы не можете редактировать свои сообщения
Вы не можете удалять свои сообщения
Вы не можете голосовать в опросах
Вы не можете прикреплять файлы к сообщениям
Вы можете скачивать файлы