Loading...
Error

Скачать Серебряная пуля / Silver Bullet (Дэниел Эттайес) [1985, мистика, ужасы, триллер, HDTVRip-AVC] [DVO]+[AVO]+[Оригинал] торрент без регистрации

 
Статистика раздачи
Размер:  2,17 GB   |    Скачан:  86 раз
Сидов:  1  [  0 KB/s  ]  
 
Автор Сообщение

Marsianka

[] 

Информация о фильме
Название: Серебряная пуля
Оригинальное название: Silver Bullet
Год выхода: 1985
Жанр: мистика, ужасы, триллер
Режиссер: Дэниел Эттайес
В ролях: Кори Хэйм, Гэри Бьюзи, Меган Фоллоуз, Эверетт МакГилл, Робин Гроувз, Леон Рассом, Терри О'Квин, Билл Смитрович и др.

О фильме:
Маленький американский городок охвачен страхом: по ночам, при полной луне кто-то зверски убивает его жителей. Кто-то покрытый шерстью, таинственный и неуловимый. Добровольцы, отправившиеся на поиски убийцы, сами становятся его жертвами. Лишь 13-летний Марти, прикованный к инвалидной коляске, убежден, что убийства совершает оборотень, против которого бессильно любое оружие, кроме серебряной пули.

Марти не только видел чудовище собственными глазами, но даже ранил в глаз. Но никто не верит рассказам парнишки, кроме его дяди Реда. А между тем оборотень уже готов вновь выйти на охоту…



Страна: США
Продолжительность: 1:34:49
Перевод: Профессиональный (двухголосый, закадровый); авторский одноголосый.

Файл
Кодек: h.264
Качество: HDTVRip-Rip
Видео: MPEG-4, 1024x436, 23.976 fps ~2250 kbps

1) 48 KHz, AC3, 6 ch ~448 Kbps - MVO
2) 48 KHz, AC3, 2 ch ~192 Kbps - AVO [Гаврилов]
3) 48 KHz, AC3, 2 ch ~192 Kbps - Original
General
Unique ID : 183265818119330830110314011080477028568 (0x89DFB672D7CBD5988E216F0F9516B0D8)
Format : Matroska
Format version : Version 4 / Version 2
File size : 2.17 GiB
Duration : 1h 34mn
Overall bit rate : 3 275 Kbps
Encoded date : UTC 2015-07-16 22:33:18
Writing application : mkvmerge v8.1.0 ('Psychedelic Postcard') 64bit
Writing library : Lavf55.12.0
Attachements : Cover.jpg

Video
ID : 1
Format : AVC
Format/Info : Advanced Video Codec
Format profile : High@L4.1
Format settings, CABAC : Yes
Format settings, ReFrames : 10 frames
Codec ID : V_MPEG4/ISO/AVC
Duration : 1h 34mn
Bit rate : 2 250 Kbps
Width : 1 024 pixels
Height : 436 pixels
Display aspect ratio : 2.35:1
Frame rate mode : Constant
Frame rate : 23.976 fps
Color space : YUV
Chroma subsampling : 4:2:0
Bit depth : 8 bits
Scan type : Progressive
Bits/(Pixel*Frame) : 0.210
Stream size : 1.45 GiB (67%)
Title : MPEG-4, 1024x436, 23.976 fps ~2250 kbps
Writing library : x264 core 142 r2479 dd79a61
Encoding settings : cabac=1 / ref=10 / deblock=1:-3:-2 / analyse=0x3:0x113 / me=umh / subme=10 / psy=1 / psy_rd=1.00:0.15 / mixed_ref=1 / me_range=24 / chroma_me=1 / trellis=2 / 8x8dct=1 / cqm=0 / deadzone=21,11 / fast_pskip=0 / chroma_qp_offset=-3 / threads=3 / lookahead_threads=1 / sliced_threads=0 / nr=0 / decimate=1 / interlaced=0 / bluray_compat=0 / constrained_intra=0 / bframes=12 / b_pyramid=2 / b_adapt=2 / b_bias=0 / direct=3 / weightb=1 / open_gop=0 / weightp=2 / keyint=240 / keyint_min=24 / scenecut=40 / intra_refresh=0 / rc_lookahead=50 / rc=2pass / mbtree=0 / bitrate=2250 / ratetol=1.0 / qcomp=0.60 / qpmin=0 / qpmax=69 / qpstep=4 / cplxblur=20.0 / qblur=0.5 / vbv_maxrate=62500 / vbv_bufsize=78125 / nal_hrd=none / filler=0 / ip_ratio=1.40 / pb_ratio=1.30 / aq=1:1.00
Language : English
Default : Yes
Forced : No
Color range : Limited
Color primaries : BT.709
Transfer characteristics : BT.709
Matrix coefficients : BT.709
DURATION : 01:34:49.101000000
NUMBER_OF_FRAMES : 136402
NUMBER_OF_BYTES : 1599710028
_STATISTICS_WRITING_APP : mkvmerge v8.1.0 ('Psychedelic Postcard') 64bit
_STATISTICS_WRITING_DATE_UT : 2015-07-16 22:33:18
_STATISTICS_TAGS : BPS DURATION NUMBER_OF_FRAMES NUMBER_OF_BYTES

Audio #1
ID : 2
Format : AC-3
Format/Info : Audio Coding 3
Mode extension : CM (complete main)
Format settings, Endianness : Big
Codec ID : A_AC3
Duration : 1h 34mn
Bit rate mode : Constant
Bit rate : 448 Kbps
Channel(s) : 6 channels
Channel positions : Front: L C R, Side: L R, LFE
Sampling rate : 48.0 KHz
Compression mode : Lossy
Stream size : 304 MiB (14%)
Title : 48 KHz, AC3, 6 ch ~448 Kbps - MVO
Language : Russian
Default : Yes
Forced : No
DURATION : 01:34:33.824000000
NUMBER_OF_FRAMES : 177307
NUMBER_OF_BYTES : 317734144
_STATISTICS_WRITING_APP : mkvmerge v8.1.0 ('Psychedelic Postcard') 64bit
_STATISTICS_WRITING_DATE_UT : 2015-07-16 22:33:18
_STATISTICS_TAGS : BPS DURATION NUMBER_OF_FRAMES NUMBER_OF_BYTES

Audio #2
ID : 3
Format : AC-3
Format/Info : Audio Coding 3
Mode extension : CM (complete main)
Format settings, Endianness : Big
Codec ID : A_AC3
Duration : 1h 34mn
Bit rate mode : Constant
Bit rate : 192 Kbps
Channel(s) : 2 channels
Channel positions : Front: L R
Sampling rate : 48.0 KHz
Compression mode : Lossy
Stream size : 130 MiB (6%)
Title : 48 KHz, AC3, 2 ch ~192 Kbps - AVO [Гаврилов]
Language : Russian
Default : No
Forced : No
DURATION : 01:34:49.120000000
NUMBER_OF_FRAMES : 177785
NUMBER_OF_BYTES : 136538880
_STATISTICS_WRITING_APP : mkvmerge v8.1.0 ('Psychedelic Postcard') 64bit
_STATISTICS_WRITING_DATE_UT : 2015-07-16 22:33:18
_STATISTICS_TAGS : BPS DURATION NUMBER_OF_FRAMES NUMBER_OF_BYTES

Audio #3
ID : 4
Format : AC-3
Format/Info : Audio Coding 3
Mode extension : CM (complete main)
Format settings, Endianness : Big
Codec ID : A_AC3
Duration : 1h 34mn
Bit rate mode : Constant
Bit rate : 384 Kbps
Channel(s) : 2 channels
Channel positions : Front: L R
Sampling rate : 48.0 KHz
Compression mode : Lossy
Stream size : 260 MiB (12%)
Title : 48 KHz, AC3, 2 ch ~192 Kbps - Original
Language : English
Default : No
Forced : No
DURATION : 01:34:49.120000000
NUMBER_OF_FRAMES : 177785
NUMBER_OF_BYTES : 273077760
_STATISTICS_WRITING_APP : mkvmerge v8.1.0 ('Psychedelic Postcard') 64bit
_STATISTICS_WRITING_DATE_UT : 2015-07-16 22:33:18
_STATISTICS_TAGS : BPS DURATION NUMBER_OF_FRAMES NUMBER_OF_BYTES



Скачать Серебряная.пуля.Silver.Bullet.(Дэниел.Эттайес).[1985.мистика.ужасы.триллер.HDTVRip-AVC].[DVO]+[AVO]+[Оригинал].torrent без регистрации
Золото ЗОЛОТАЯ РАЗДАЧА! СКАЧАННОЕ НЕ ЗАСЧИТЫВАЕТСЯ! Золото
Дата: Зарегистрирован   [ Тип: внутренний ] Как тут cкачать?
MAGNET ссылка
MAGNET ссылка


Скачать .torrent

12 KB

Статус: проверено DHT
Скачан: торрент - 86 раз, раздача полностью - 8 раз
Размер: 2,17 GB
Оценка:  - (Голосов: 0)
Поблагодарили: 1
Поделиться ссылкой на эту раздачу с друзьями:
В контактеFacebookОдноклассникиTwitterLivejournalМой МирLiveinternet
 

 
Показать сообщения:    


Вы не можете начинать темы
Вы не можете отвечать на сообщения
Вы не можете редактировать свои сообщения
Вы не можете удалять свои сообщения
Вы не можете голосовать в опросах
Вы не можете прикреплять файлы к сообщениям
Вы можете скачивать файлы