Loading...
Error

Скачать Голубоглазый Микки / Mickey Blue Eyes (Келли Макин) [1999, комедия, криминал, мелодрама, HDTVRip] [Dub]+[MVO] торрент без регистрации

 
Статистика раздачи
Размер:  1,45 GB   |    Скачан:  68 раз
Сидов:  1  [  0 KB/s  ]  
 
Автор Сообщение

Marsianka

[] 

Информация о фильме
Название: Голубоглазый Микки
Оригинальное название: Mickey Blue Eyes
Год выхода: 1999
Жанр: комедия, криминал, мелодрама
Режиссер: Келли Макин / Kelly Makin
В ролях: Хью Грант, Джеймс Каан, Джинн Трипплхорн, Берт Янг, Джеймс Фокс, Джо Витерелли, Джерри Бекер, Мэдди Кормэн, Тони Дарроу, Пол Лэзар

О фильме:
Добропорядочный Микки Фелгейт влюбился в дочь нью-йоркского гангстера Джину Витале. Но узнает об этом, когда речь уже зашла о свадьбе.
Эта новость не сильно смутила Микки, да и Фрэнк Витале оказался милейшим человеком и встретил будущего зятя с распростертыми объятиями.
Микки, можно сказать, был досрочно принят в «семью». А раз так, то скоро изумленный жених оказался в эпицентре событий, явно незаконного свойства. Он все понял, но было поздно…



Страна: США
Продолжительность: 01:37:42
Перевод: Профессиональный (дублированный), Профессиональный (многоголосый закадровый) 1 канал

Файл
Кодек: XviD
Качество: HDTVRip
Видео: 704x400, 25.000 fps, 1605 kbps
Аудио 1: AC3, 48.0 KHz, 6 ch, 384 Kbps..........Профессиональный (дублированный)
Аудио 2: AC3, 48.0 KHz, 2 ch, 192 Kbps..........Профессиональный (многоголосый закадровый) 1
Общее
Полное имя : Mickey.Blue.Eyes.1999.HDTVRip.avi
Формат : AVI
Формат/Информация : Audio Video Interleave
Размер файла : 1,45 Гбайт
Продолжительность : 1 ч. 34 м.
Общий поток : 2195 Кбит/сек
Программа кодирования : VirtualDubMod 1.5.10.2 (build 2542/release)
Библиотека кодирования : VirtualDubMod build 2542/release

Видео
Идентификатор : 0
Формат : MPEG-4 Visual
Профиль формата : Advanced Simple@L5
Параметр BVOP формата : 1
Параметр QPel формата : Нет
Параметр GMC формата : Без точки перехода
Параметр матрицы формата : Выборочная
Идентификатор кодека : XVID
Идентификатор кодека/Подсказка : XviD
Продолжительность : 1 ч. 34 м.
Битрейт : 1605 Кбит/сек
Ширина : 704 пикс.
Высота : 400 пикс.
Соотношение сторон : 16:9
Частота кадров : 25,000 кадр/сек
Цветовое пространство : YUV
Подвыборка цветности : 4:2:0
Битовая глубина : 8 бит
Тип развёртки : Прогрессивная
Метод сжатия : С потерями
Бит/(Пиксели*Кадры) : 0.228
Размер потока : 1,06 Гбайт (73%)
Библиотека кодирования : XviD 73

Аудио #1
Идентификатор : 1
Формат : AC-3
Формат/Информация : Audio Coding 3
Расширение режима : CM (complete main)
Идентификатор кодека : 2000
Продолжительность : 1 ч. 34 м.
Вид битрейта : Постоянный
Битрейт : 384 Кбит/сек
Канал(ы) : 6 канала(ов)
Расположение каналов : Front: L C R, Side: L R, LFE
Частота : 48,0 КГц
Битовая глубина : 16 бит
Метод сжатия : С потерями
Размер потока : 260 Мбайт (17%)
Выравнивание : Разделение по промежуткам
Продолжительность промежутка : 40 мс. (1,00 видеокадр)
Время предзагрузки промежутка : 500 ms

Аудио #2
Идентификатор : 2
Формат : AC-3
Формат/Информация : Audio Coding 3
Расширение режима : CM (complete main)
Идентификатор кодека : 2000
Продолжительность : 1 ч. 34 м.
Вид битрейта : Постоянный
Битрейт : 192 Кбит/сек
Канал(ы) : 2 канала(ов)
Расположение каналов : Front: L R
Частота : 48,0 КГц
Битовая глубина : 16 бит
Метод сжатия : С потерями
Размер потока : 130 Мбайт (9%)
Выравнивание : Разделение по промежуткам
Продолжительность промежутка : 40 мс. (1,00 видеокадр)
Время предзагрузки промежутка : 500 ms
Релиз от: Leon-masl



Скачать Голубоглазый.Микки.Mickey.Blue.Eyes.(Келли.Макин).[1999.комедия.криминал.мелодрама.HDTVRip].[Dub]+[MVO].torrent без регистрации
Золото ЗОЛОТАЯ РАЗДАЧА! СКАЧАННОЕ НЕ ЗАСЧИТЫВАЕТСЯ! Золото
Дата: Зарегистрирован   [ Тип: внутренний ] Как тут cкачать?
MAGNET ссылка
MAGNET ссылка


Скачать .torrent

15 KB

Статус: проверено DHT
Скачан: торрент - 68 раз, раздача полностью - 0 раз
Размер: 1,45 GB
Оценка:  - (Голосов: 0)
Поблагодарили: 0
Поделиться ссылкой на эту раздачу с друзьями:
В контактеFacebookОдноклассникиTwitterLivejournalМой МирLiveinternet
 

 
Показать сообщения:    


Вы не можете начинать темы
Вы не можете отвечать на сообщения
Вы не можете редактировать свои сообщения
Вы не можете удалять свои сообщения
Вы не можете голосовать в опросах
Вы не можете прикреплять файлы к сообщениям
Вы можете скачивать файлы