Loading...
Error

Скачать Танец с незнакомцем / Dance with a Stranger (Майк Ньюэлл) [1985, триллер, драма, криминал, биография, DVDRip-AVC] [MVO]+[Sub] торрент без регистрации

 
Статистика раздачи
Размер:  1,78 GB   |    Скачан:  136 раз
Сидов:  1  [  0 KB/s  ]  
 
Автор Сообщение

Marsianka

[] 

Информация о фильме
Название: Танец с незнакомцем
Оригинальное название: Dance with a Stranger
Год выхода: 1985
Жанр: триллер, драма, криминал, биография
Режиссер: Майк Ньюэлл
В ролях: Миранда Ричардсон, Руперт Эверет, Иэн Холм, Стрэтфорд Джонс, Джоэнн Уэлли, Том Чэдбон, Джейн Бертиш, Дэвид Тротон, Мэттью Кэрролл, Дэвид Бил

О фильме:
Между хозяйкой ночного клуба Рут Эллис и молодым красивым гонщиком Дэвидом Блэйкли начинается бурный роман. Но английский аристократ Дэвид не может открыто поддерживать отношения с женщиной сомнительной репутации. Он бросает Рут, что приводит ее в полное смятение чувств. Сгорая от безнадежной страсти, она впадает в депрессию, теряет работу и дом. Желая любой ценой вернуть любимого, Рут отправляется на последнюю, решающую встречу с Дэвидом, спрятав в сумочку пистолет.


Страна: Великобритания
Студия: Goldcrest Films International, National Film Finance Corporation (NFFC), Film Four International
Продолжительность: 01:38:12.040
Перевод: Профессиональный (многоголосый, закадровый) R5

Файл
Кодек: h.264
Качество: DVDRip-AVC
Видео: 704x544 (1.85:1) @ 1012x544 (анаморф), 25.000 fps, AVC, ~2215 Kbps, 0.231 bits/pixel

Русский, 48.0 KHz, AC3, 2 ch, 192 Kbps
Английский, 48.0 KHz, AC3, 2 ch, 192 Kbps
Субтитры: Русские, VobSub R5
Исходник видео R5 DVD9
Общее
Уникальный идентификатор : 191504930337360039192520859075721370972 (0x9012820B34165EBA94A52A689FC91D5C)
Полное имя : D:FilmsTanets_s_neznakomtsem.1985.DVDRip-AVC.mkv
Формат : Matroska
Версия формата : Version 4 / Version 2
Размер файла : 1,78 Гбайт
Продолжительность : 1 ч. 38 м.
Общий поток : 2602 Кбит/сек
Дата кодирования : UTC 2014-04-01 17:19:34
Программа кодирования : mkvmerge v6.8.0 ('Theme for Great Cities') 64bit built on Mar 2 2014 21:34:26
Библиотека кодирования : libebml v1.3.0 + libmatroska v1.4.1

Видео
Идентификатор : 1
Формат : AVC
Формат/Информация : Advanced Video Codec
Профиль формата : High@L4.1
Параметр CABAC формата : Да
Параметр ReFrames формата : 16 кадров
Идентификатор кодека : V_MPEG4/ISO/AVC
Продолжительность : 1 ч. 38 м.
Битрейт : 2215 Кбит/сек
Ширина : 704 пикселя
Высота : 544 пикселя
Соотношение сторон : 1,85:1
Соотношение сторон в оригинале : 1,85:1
Режим частоты кадров : Постоянный
Частота кадров : 25,000 кадров/сек
Цветовое пространство : YUV
Субдискретизация насыщенности : 4:2:0
Битовая глубина : 8 бит
Тип развёртки : Прогрессивная
Бит/(Пиксели*Кадры) : 0.231
Размер потока : 1,49 Гбайт (83%)
Библиотека кодирования : x264 core 138 r2358 9e941d1
Настройки программы : cabac=1 / ref=16 / deblock=1:0:0 / analyse=0x3:0x133 / me=umh / subme=10 / psy=1 / psy_rd=1.10:0.10 / mixed_ref=1 / me_range=32 / chroma_me=1 / trellis=2 / 8x8dct=1 / cqm=0 / deadzone=21,11 / fast_pskip=0 / chroma_qp_offset=-6 / threads=8 / lookahead_threads=2 / sliced_threads=0 / nr=0 / decimate=0 / interlaced=0 / bluray_compat=0 / constrained_intra=0 / bframes=11 / b_pyramid=2 / b_adapt=2 / b_bias=0 / direct=3 / weightb=1 / open_gop=0 / weightp=2 / keyint=250 / keyint_min=25 / scenecut=60 / intra_refresh=0 / rc_lookahead=60 / rc=2pass / mbtree=0 / bitrate=2215 / ratetol=1.0 / qcomp=0.60 / qpmin=0 / qpmax=69 / qpstep=4 / cplxblur=20.0 / qblur=0.5 / vbv_maxrate=50000 / vbv_bufsize=62500 / nal_hrd=none / ip_ratio=1.40 / pb_ratio=1.30 / aq=2:1.00
Default : Нет
Forced : Нет
Коэффициенты матрицы : BT.601

Аудио #1
Идентификатор : 2
Формат : AC-3
Формат/Информация : Audio Coding 3
Расширение режима : CM (complete main)
Параметр Endianness формата : Big
Идентификатор кодека : A_AC3
Продолжительность : 1 ч. 38 м.
Вид битрейта : Постоянный
Битрейт : 192 Кбит/сек
Каналы : 2 канала
Расположение каналов : Front: L R
Частота : 48,0 КГц
Битовая глубина : 16 бит
Метод сжатия : С потерями
Размер потока : 135 Мбайт (7%)
Язык : Russian
Default : Да
Forced : Нет

Аудио #2
Идентификатор : 3
Формат : AC-3
Формат/Информация : Audio Coding 3
Расширение режима : CM (complete main)
Параметр Endianness формата : Big
Идентификатор кодека : A_AC3
Продолжительность : 1 ч. 38 м.
Вид битрейта : Постоянный
Битрейт : 192 Кбит/сек
Каналы : 2 канала
Расположение каналов : Front: L R
Частота : 48,0 КГц
Битовая глубина : 16 бит
Метод сжатия : С потерями
Размер потока : 135 Мбайт (7%)
Язык : English
Default : Нет
Forced : Нет

Текст
Идентификатор : 4
Формат : VobSub
Режим смешивания : zlib
Идентификатор кодека : S_VOBSUB
Идентификатор кодека/Информация : The same subtitle format used on DVDs
Язык : Russian
Default : Нет
Forced : Нет

Меню
00:00:00.000 : en:Chapter 01
00:01:36.880 : en:Chapter 02
00:11:53.640 : en:Chapter 03
00:21:59.400 : en:Chapter 04
00:29:48.120 : en:Chapter 05
00:39:59.160 : en:Chapter 06
00:51:53.320 : en:Chapter 07
01:01:26.720 : en:Chapter 08
01:10:04.120 : en:Chapter 09
01:20:33.760 : en:Chapter 10
01:29:46.760 : en:Chapter 11
01:34:32.200 : en:Chapter 12
Релиз от: Temperest



Скачать Танец.с.незнакомцем.Dance.with.a.Stranger.(Майк.Ньюэлл).[1985.триллер.драма.криминал.биография.DVDRip-AVC].[MVO]+[Sub].torrent без регистрации
Золото ЗОЛОТАЯ РАЗДАЧА! СКАЧАННОЕ НЕ ЗАСЧИТЫВАЕТСЯ! Золото
Дата: Зарегистрирован   [ Тип: внутренний ] Как тут cкачать?
MAGNET ссылка
MAGNET ссылка


Скачать .torrent

19 KB

Статус: проверено DHT
Скачан: торрент - 136 раз, раздача полностью - 0 раз
Размер: 1,78 GB
Оценка:  - (Голосов: 0)
Поблагодарили: 1
Поделиться ссылкой на эту раздачу с друзьями:
В контактеFacebookОдноклассникиTwitterLivejournalМой МирLiveinternet
 

 
Показать сообщения:    


Вы не можете начинать темы
Вы не можете отвечать на сообщения
Вы не можете редактировать свои сообщения
Вы не можете удалять свои сообщения
Вы не можете голосовать в опросах
Вы не можете прикреплять файлы к сообщениям
Вы можете скачивать файлы