Loading...
Error

Скачать Трудная мишень / Hard Target (Джон Ву) [1993, боевик, HDTVRip-AVC] 2x[MVO] + [DVO] + 4x[AVO] торрент без регистрации

 
Статистика раздачи
Размер:  3,73 GB   |    Скачан:  144 раза
Сидов:  1  [  0 KB/s  ]  
 
Автор Сообщение

leon030982

[] 

Трудная мишень / Hard Target

Страна: США
Жанр: боевик
Год выпуска: 1993
Продолжительность: 01:36:00
Перевод 1: Профессиональный (многоголосый закадровый) Карусель
Перевод 2: Профессиональный (многоголосый закадровый) Lizard sinema trade отдельно
Перевод 3: Профессиональный (двухголосый закадровый) Премьер видео отдельно
Перевод 4: Авторский (одноголосый закадровый) Андрей Гаврилов
Перевод 5: Авторский (одноголосый закадровый) Василий Горчаков отдельно
Перевод 6: Авторский (одноголосый закадровый) Юрий Живов отдельно
Перевод 7: Авторский (одноголосый закадровый) Андрей Дольский отдельно
Cубтитры: русские
Оригинальная дорожка: английский
Режиссер: Джон Ву / John Woo
Сценарий: Чак Пфаррер
Продюсер: Теренс Чанг, Шон Дэниэл, Моше Дайамант
Оператор: Рассел Карпентер
Композитор: Грэм Ревелл, Тим Саймонек, Людвиг ван Бетховен
Художник: Фил Дэгорт, Филип Мессина, Керин Вагнер
Монтаж: Боб Муравски
В ролях: Жан-Клод Ван Дамм, Чак Пфаррер, Роберт Аписа, Арнольд Вослоу, Лэнс Хенриксен, Дуглас Форсайт Рай, Майк Лейнерт, Янси Батлер, Ленор Бэнкс, Уилли С. Карпентер
Описание: Мужественный герой неутомимого Ван Дамма пытается помочь молодой красавице найти ее отца, ветерана вьетнамской войны, пропавшего без вести не на полях сражений, а в родной стране, а в результате — вынужден не на жизнь, а на смерть схватиться с бандой патологических злодеев, которые используют несчастных бездомных в качестве жертв своей жестокой и опасной игры.

Финальной экшен-сценой фильма должна была стать погоня на катерах, но из-за вмешательства в творческий процесс Ван Дамма, режиссер Джон Ву внес коррективы и в итоге погоня на катерах стала финальной для другого фильма Ву - «Без лица».
В одной из последних сцен, уже на заброшенной фабрике, из-за взрыва пальто героя, которого играет Лэнс Хенриксен, загорается, и на его волосах и шее отчетливо виден специальный гель, который наносят каскадеры во избежание ожогов.
Американский дебют самого знаменитого режиссера Гонконга Джона Ву. "Трудная мишень" – это римейк знаменитого фильма начала тридцатых "Самая опасная игра" с Лесли Бэнксом.
Слоган фильма, можно перевести как "не умеешь, не берись" или "не уверен, не нападай", или "не зная брода, не суйся в воду". Это совет от героя Ван Дамма злодею Хенриксена.

Сэмпл: 1:19 мин 53 МБ
Качество видео: HDTVRip-AVC Hard Target 1993 1080i HDTV DD5.1 MPEG2-CtrlHD.ts MPEG2 ~17.1 MBit/s
Формат видео: MKV
Видео: AVC 998x534@23.976 fps 2998 kbit/s
Аудио 1: AC3 448 kBit/s 48 kHz 5.1 DD Профессиональный (многоголосый закадровый) Карусель
Аудио 2: AC3 448 kBit/s 48 kHz 5.1 DD Авторский (одноголосый закадровый) Андрей Гаврилов
Аудио 3: AC3 448 kBit/s 48 kHz 5.1 DD Оригинальная дорожка: английский
_________________Отдельными файлами__________________
Аудио 4: AC3 448 kBit/s 48 kHz 5.1 DD Профессиональный (многоголосый закадровый)Lizard sinema trade
Аудио 5: AC3 192 kBit/s 48 kHz 2.0 Профессиональный (двухголосый закадровый) Премьер видео
Аудио 6: AC3 448 kBit/s 48 kHz 5.1 DD Авторский (одноголосый закадровый)Василий Горчаков
Аудио 7: AC3 192 kBit/s 48 kHz 2.0 Авторский (одноголосый закадровый)Юрий Живов
Аудио 8: AC3 192 kBit/s 48 kHz 2.0 Авторский (одноголосый закадровый)Андрей Дольский
x264vfw [info]: using SAR=1/1
x264vfw [info]: using cpu capabilities: MMX2 SSE2Fast SSSE3 FastShuffle SSE4.1 Cache64
x264vfw [info]: profile High, level 4.1
x264vfw [info]: frame I:740 Avg QP:17.03 size: 69851
x264vfw [info]: frame P:14756 Avg QP:19.85 size: 32474
x264vfw [info]: frame B:50677 Avg QP:23.53 size: 9865
x264vfw [info]: consecutive B-frames: 2.8% 2.6% 8.2% 30.3% 19.3% 9.6% 12.6% 9.6% 5.0%
x264vfw [info]: mb I I16..4: 3.7% 83.4% 12.8%
x264vfw [info]: mb P I16..4: 1.4% 22.2% 2.7% P16..4: 35.3% 21.7% 10.3% 0.9% 0.2% skip: 5.3%
x264vfw [info]: mb B I16..4: 0.1% 1.9% 0.3% B16..8: 41.9% 11.8% 3.0% direct: 7.8% skip:33.2% L0:42.4% L1:47.2% BI:10.3%
x264vfw [info]: 8x8 transform intra:83.7% inter:65.6%
x264vfw [info]: direct mvs spatial:98.6% temporal:1.4%
x264vfw [info]: coded y,uvDC,uvAC intra: 92.5% 81.2% 50.1% inter: 34.9% 21.2% 4.7%
x264vfw [info]: i16 v,h,dc,p: 32% 15% 8% 46%
x264vfw [info]: i8 v,h,dc,ddl,ddr,vr,hd,vl,hu: 12% 8% 5% 9% 14% 13% 13% 12% 13%
x264vfw [info]: i4 v,h,dc,ddl,ddr,vr,hd,vl,hu: 12% 7% 3% 9% 15% 15% 14% 12% 14%
x264vfw [info]: i8c dc,h,v,p: 39% 26% 19% 16%
x264vfw [info]: Weighted P-Frames: Y:19.8% UV:11.4%
x264vfw [info]: ref P L0: 46.0% 13.1% 17.1% 6.5% 4.5% 3.2% 2.5% 1.5% 1.2% 1.0% 0.8% 0.7% 0.6% 0.6% 0.5% 0.2%
x264vfw [info]: ref B L0: 78.1% 9.7% 4.3% 2.1% 1.5% 1.1% 0.9% 0.6% 0.5% 0.4% 0.3% 0.3% 0.2% 0.1%
x264vfw [info]: ref B L1: 93.3% 6.7%
x264vfw [info]: kb/s:2987.83
General
Unique ID : 206306841550721167945346130824082752317 (0x9B35409C76BDF527955D90E4D2C8033D)
Complete name : F:\FILMS\___ - R - ___\Hard Target\Hard Target.mkv
Format : Matroska
Format version : Version 2
File size : 2.91 GiB
Duration : 1h 36mn
Overall bit rate : 4 339 Kbps
Encoded date : UTC 2012-05-13 17:13:49
Writing application : mkvmerge v3.3.0 ('Language') строится на Apr 12 2010 10:07:49
Writing library : libebml v0.8.0 + libmatroska v0.9.0
Video
ID : 1
Format : AVC
Format/Info : Advanced Video Codec
Format profile : High@L4.1
Format settings, CABAC : Yes
Format settings, ReFrames : 15 frames
Codec ID : V_MPEG4/ISO/AVC
Duration : 1h 36mn
Bit rate : 2 998 Kbps
Width : 992 pixels
Height : 534 pixels
Display aspect ratio : 1.85:1
Frame rate : 23.976 fps
Color space : YUV
Chroma subsampling : 4:2:0
Bit depth : 8 bits
Scan type : Progressive
Bits/(Pixel*Frame) : 0.236
Stream size : 1.95 GiB (67%)
Writing library : x264 core 122 r2184bm 5c85e0a
Encoding settings : cabac=1 / ref=15 / deblock=1:-1:-1 / analyse=0x3:0x133 / me=umh / subme=10 / psy=1 / psy_rd=1.00:0.00 / mixed_ref=1 / me_range=48 / chroma_me=1 / trellis=2 / 8x8dct=1 / cqm=0 / deadzone=21,11 / fast_pskip=0 / chroma_qp_offset=-2 / threads=6 / sliced_threads=0 / nr=0 / decimate=0 / interlaced=0 / bluray_compat=0 / constrained_intra=0 / bframes=8 / b_pyramid=2 / b_adapt=2 / b_bias=0 / direct=3 / weightb=1 / open_gop=0 / weightp=2 / keyint=250 / keyint_min=23 / scenecut=40 / intra_refresh=0 / rc=2pass / mbtree=0 / bitrate=2998 / ratetol=1.0 / qcomp=0.90 / qpmin=0 / qpmax=69 / qpstep=4 / cplxblur=20.0 / qblur=0.5 / ip_ratio=1.40 / pb_ratio=1.60 / aq=2:1.20
Default : Yes
Forced : No
Audio #1
ID : 2
Format : AC-3
Format/Info : Audio Coding 3
Mode extension : CM (complete main)
Format settings, Endianness : Big
Codec ID : A_AC3
Duration : 1h 36mn
Bit rate mode : Constant
Bit rate : 448 Kbps
Channel(s) : 6 channels
Channel positions : Front: L C R, Side: L R, LFE
Sampling rate : 48.0 KHz
Bit depth : 16 bits
Compression mode : Lossy
Stream size : 308 MiB (10%)
Title : MVO Карусель AC3 448 kBit/s 48 kHz 5.1 DD
Language : Russian
Default : Yes
Forced : No
Audio #2
ID : 3
Format : AC-3
Format/Info : Audio Coding 3
Mode extension : CM (complete main)
Format settings, Endianness : Big
Codec ID : A_AC3
Duration : 1h 36mn
Bit rate mode : Constant
Bit rate : 448 Kbps
Channel(s) : 6 channels
Channel positions : Front: L C R, Side: L R, LFE
Sampling rate : 48.0 KHz
Bit depth : 16 bits
Compression mode : Lossy
Stream size : 308 MiB (10%)
Title : Гаврилов AC3 448 kBit/s 48 kHz 5.1 DD
Language : Russian
Default : No
Forced : No
Audio #3
ID : 4
Format : AC-3
Format/Info : Audio Coding 3
Mode extension : CM (complete main)
Format settings, Endianness : Big
Codec ID : A_AC3
Duration : 1h 36mn
Bit rate mode : Constant
Bit rate : 448 Kbps
Channel(s) : 6 channels
Channel positions : Front: L C R, Side: L R, LFE
Sampling rate : 48.0 KHz
Bit depth : 16 bits
Compression mode : Lossy
Stream size : 308 MiB (10%)
Title : AC3 448 kBit/s 48 kHz 5.1 DD
Language : English
Default : No
Forced : No
Text
ID : 5
Format : UTF-8
Codec ID : S_TEXT/UTF8
Codec ID/Info : UTF-8 Plain Text
Language : Russian
Default : Yes
Forced : No



Скачать Трудная.мишень.Hard.Target.(Джон.Ву).[1993.боевик.HDTVRip-AVC].2x[MVO].+.[DVO].+.4x[AVO].torrent без регистрации
Золото ЗОЛОТАЯ РАЗДАЧА! СКАЧАННОЕ НЕ ЗАСЧИТЫВАЕТСЯ! Золото
Дата: Зарегистрирован   [ Тип: внутренний ] Как тут cкачать?
MAGNET ссылка
MAGNET ссылка


Скачать .torrent

20 KB

Статус: проверено DHT
Скачан: торрент - 144 раз, раздача полностью - 12 раз
Размер: 3,73 GB
Оценка:  5 (Голосов: 1)
Поблагодарили: 1
Поделиться ссылкой на эту раздачу с друзьями:
В контактеFacebookОдноклассникиTwitterLivejournalМой МирLiveinternet
 

 
Показать сообщения:    


Вы не можете начинать темы
Вы не можете отвечать на сообщения
Вы не можете редактировать свои сообщения
Вы не можете удалять свои сообщения
Вы не можете голосовать в опросах
Вы не можете прикреплять файлы к сообщениям
Вы можете скачивать файлы