Loading...
Error

Скачать Первая любовь / İlk Aşk ( Нихат Дурак) [2006, драма, комедия, DVDRip] [DVO]+[Оригинал] торрент без регистрации

 
Статистика раздачи
Размер:  2,18 GB   |    Скачан:  93 раза
Сидов:  1  [  0 KB/s  ]  
 
Автор Сообщение

Marsianka

[] 

Страна: Турция
Жанр: драма, комедия
Год выпуска: 2006
Продолжительность: 01:56:11

Перевод: Любительский (двухголосый закадровый)
Cубтитры: нет
Оригинальная аудиодорожка: турецкий

Режиссёр: Нихат Дурак / Nihat Durak

В ролях: Четин Текиндор / Çetin Tekindor, Вахиде Перчин / Vahide Perçin, Тарик Пабучджуоглу / Tarik Pabuccuoglu, Халит Эргенч / Halit Ergenç, Долунай Ойсерт / Dolunay Soysert, Рафаэлле Чедолини / Rafaelle Cedolini, Сенай Гюрлер // Senay Gürler, Неслихан Атагюль / Neslihan Atagül, Окан Ялабык / Okan Yalabik, Айсен Груда / Aysen Gruda, Эрол Гюнайдин / Erol Günaydin, Азра Акин / Azra Akin, Эмрах Эрен / Emrah Eren

Описание: События фильма разворачиваются в посёлке на берегу Эгейского моря в начале 1990-х годов. Далеко позади остались дни великолепия одной из передовых семей поселка Арифоуллары. Все их земли распроданы, у них ничего не осталось, кроме старой дышащей на ладан фабрики оливкового масла. Глава семьи Ариф - восьмидесятипятилетний вздорный старик, много лет назад оставивший семейные дела. Единственное, что интересует его сына Азми - это примирение со своей бывшей женой Невин. Их сын Кемаль грезит мечтой о легких деньгах и мечется между женой и любовницей. Самый младший член семьи Ариф Эге пребывает в переходном возрасте, испытывает муки первой любви. Главную линию повествования составляют истории первой любви героев фильма из различных поколений и то, к чему они привели.



Видео: XviD73, 688x384 (16:9), 25.000 fps, 2024 kbps, 0.30 bit/(pixel*frame)
Аудио№1: AC3, 48000 Hz, 6 ch, 448 kbps (русский)
Аудио№2: AC3, 48000 Hz, 2 ch, 192 kbps (турецкий)

General
Format : AVI
Format/Info : Audio Video Interleave
Format profile : OpenDML
File size : 2.18 GiB
Duration : 1h 56mn
Overall bit rate : 2 682 Kbps
Writing application : VirtualDubModRus 1.5.10.2 (build 2542/release)
Writing library : VirtualDubMod build 2542/release

Video
ID : 0
Format : MPEG-4 Visual
Format profile : Advanced Simple@L5
Format settings, BVOP : 2
Format settings, QPel : No
Format settings, GMC : No warppoints
Format settings, Matrix : Custom
Codec ID : XVID
Codec ID/Hint : XviD
Duration : 1h 56mn
Bit rate : 2 024 Kbps
Width : 688 pixels
Height : 384 pixels
Display aspect ratio : 16:9
Frame rate : 25.000 fps
Color space : YUV
Chroma subsampling : 4:2:0
Bit depth : 8 bits
Scan type : Progressive
Compression mode : Lossy
Bits/(Pixel*Frame) : 0.306
Stream size : 1.64 GiB (75%)
Writing library : XviD 73

Audio #1
ID : 1
Format : AC-3
Format/Info : Audio Coding 3
Mode extension : CM (complete main)
Format settings, Endianness : Big
Codec ID : 2000
Duration : 1h 56mn
Bit rate mode : Constant
Bit rate : 448 Kbps
Channel(s) : 6 channels
Channel positions : Front: L C R, Side: L R, LFE
Sampling rate : 48.0 KHz
Compression mode : Lossy
Stream size : 372 MiB (17%)
Alignment : Split accross interleaves
Interleave, duration : 40 ms (1.00 video frame)
Interleave, preload duratio : 500 ms

Audio #2
ID : 2
Format : AC-3
Format/Info : Audio Coding 3
Mode extension : CM (complete main)
Format settings, Endianness : Big
Codec ID : 2000
Duration : 1h 56mn
Bit rate mode : Constant
Bit rate : 192 Kbps
Channel(s) : 2 channels
Channel positions : Front: L R
Sampling rate : 48.0 KHz
Compression mode : Lossy
Stream size : 160 MiB (7%)
Alignment : Split accross interleaves
Interleave, duration : 40 ms (1.00 video frame)
Interleave, preload duratio : 500 ms
Приятного просмотра!



Скачать Первая.любовь.İlk.Aşk.(.Нихат.Дурак).[2006.драма.комедия.DVDRip].[DVO]+[Оригинал].torrent без регистрации
Золото ЗОЛОТАЯ РАЗДАЧА! СКАЧАННОЕ НЕ ЗАСЧИТЫВАЕТСЯ! Золото
Дата: Зарегистрирован   [ Тип: внутренний ] Как тут cкачать?
MAGNET ссылка
MAGNET ссылка


Скачать .torrent

12 KB

Статус: проверено DHT
Скачан: торрент - 93 раз, раздача полностью - 15 раз
Размер: 2,18 GB
Оценка:  - (Голосов: 0)
Поблагодарили: 0
Поделиться ссылкой на эту раздачу с друзьями:
В контактеFacebookОдноклассникиTwitterLivejournalМой МирLiveinternet
 

 
Показать сообщения:    


Вы не можете начинать темы
Вы не можете отвечать на сообщения
Вы не можете редактировать свои сообщения
Вы не можете удалять свои сообщения
Вы не можете голосовать в опросах
Вы не можете прикреплять файлы к сообщениям
Вы можете скачивать файлы