Loading...
Error

Скачать Мимон / Ed Medina (Эмиль Бен-Шимон) [2005, драма, DVDRip] [DVO]+[Оригинал] торрент без регистрации

 
Статистика раздачи
Размер:  1,46 GB   |    Скачан:  95 раз
Сидов:  1  [  0 KB/s  ]  
 
Автор Сообщение

Marsianka

[] 

Страна: Израиль
Жанр: драма
Год выпуска: 2005
Продолжительность: 01:19:12

Перевод: Любительский (двухголосый закадровый)
Cубтитры: нет
Оригинальная аудиодорожка: иврит

Режиссёр: Эмиль Бен-Шимон

В ролях: Декель Адин, Гай Коэн, Шэрон Элимелеч, Шимон Мимран, Ямит Сол, Авив Алаш, Юнон Коэн, Йосси Мататов, Ханан Савьон, Фира Кантон, Ёла Олман, Амир Бушари, Ошри Коэн, Виктор Идда

Описание: Двенадцатилетний Мимон живёт со старшей сестрой и матерью-одиночкой, водителем лимузина, занятой с утра до вечера заработком денег для семьи. Свое одиночество он компенсирует общением с хулиганами-сверстниками и бандой взрослых парней, хотя намного умнее их. Мать считает его одним из лучших учеников класса, и то, что его собираются оставить на второй год, может стать для нее ударом. Мимону нужно что-то предпринять, чтобы не огорчить мать, спасительный план связан с ограблением почтового отделения.



Видео: XviD73, 688x384 (16:9), 25.000 fps, 2304 kbps, 0.34 bit/(pixel*frame)
Аудио№1: MP3, 48000 Hz, 2 ch, 192 kbps (русский)
Аудио№2: MP3, 48000 Hz, 2 ch, 128 kbps (иврит)

General
Format : AVI
Format/Info : Audio Video Interleave
File size : 1.46 GiB
Duration : 1h 19mn
Overall bit rate : 2 638 Kbps
Writing application : VirtualDubModRus 1.5.10.2 (build 2542/release)
Writing library : VirtualDubMod build 2542/release

Video
ID : 0
Format : MPEG-4 Visual
Format profile : Advanced Simple@L5
Format settings, BVOP : 2
Format settings, QPel : No
Format settings, GMC : No warppoints
Format settings, Matrix : Custom
Codec ID : XVID
Codec ID/Hint : XviD
Duration : 1h 19mn
Bit rate : 2 304 Kbps
Width : 688 pixels
Height : 384 pixels
Display aspect ratio : 16:9
Frame rate : 25.000 fps
Color space : YUV
Chroma subsampling : 4:2:0
Bit depth : 8 bits
Scan type : Progressive
Compression mode : Lossy
Bits/(Pixel*Frame) : 0.349
Stream size : 1.27 GiB (87%)
Writing library : XviD 73

Audio #1
ID : 1
Format : MPEG Audio
Format version : Version 1
Format profile : Layer 3
Mode : Joint stereo
Codec ID : 55
Codec ID/Hint : MP3
Duration : 1h 19mn
Bit rate mode : Constant
Bit rate : 192 Kbps
Channel(s) : 2 channels
Sampling rate : 48.0 KHz
Compression mode : Lossy
Stream size : 109 MiB (7%)
Alignment : Aligned on interleaves
Interleave, duration : 40 ms (1.00 video frame)
Interleave, preload duratio : 504 ms

Audio #2
ID : 2
Format : MPEG Audio
Format version : Version 1
Format profile : Layer 3
Codec ID : 55
Codec ID/Hint : MP3
Duration : 1h 19mn
Bit rate mode : Constant
Bit rate : 128 Kbps
Channel(s) : 2 channels
Sampling rate : 48.0 KHz
Compression mode : Lossy
Stream size : 72.5 MiB (5%)
Alignment : Aligned on interleaves
Interleave, duration : 40 ms (1.00 video frame)
Interleave, preload duratio : 504 ms
Writing library : LAME3.99r
Encoding settings : -m s -V 4 -q 2 -lowpass 17 -b 128
Приятного просмотра!



Скачать Мимон.Ed.Medina.(Эмиль.Бен-Шимон).[2005.драма.DVDRip].[DVO]+[Оригинал].torrent без регистрации
Золото ЗОЛОТАЯ РАЗДАЧА! СКАЧАННОЕ НЕ ЗАСЧИТЫВАЕТСЯ! Золото
Дата: Зарегистрирован   [ Тип: внутренний ] Как тут cкачать?
MAGNET ссылка
MAGNET ссылка


Скачать .torrent

16 KB

Статус: проверено DHT
Скачан: торрент - 95 раз, раздача полностью - 1 раз
Размер: 1,46 GB
Оценка:  - (Голосов: 0)
Поблагодарили: 0
Поделиться ссылкой на эту раздачу с друзьями:
В контактеFacebookОдноклассникиTwitterLivejournalМой МирLiveinternet
 

 
Показать сообщения:    


Вы не можете начинать темы
Вы не можете отвечать на сообщения
Вы не можете редактировать свои сообщения
Вы не можете удалять свои сообщения
Вы не можете голосовать в опросах
Вы не можете прикреплять файлы к сообщениям
Вы можете скачивать файлы