Loading...
Error

Скачать Государственный секретарь / Madam Secretary (01х01-22 из 22) (Эрик Столц, Дэнни Гордон) [2014, политическая драма, WEB-DLRip] [DVO (Kiitos)] торрент без регистрации

 
Статистика раздачи
Размер:  10,74 GB   |    Скачан:  1933 раза
Сидов:  1  [  0 KB/s  ]  
 
Автор Сообщение

МихаНЕзатор

[] 

Государственный секретарь / Madam Secretary


Год выпуска: 2014
Страна: США
Жанр: Политическая драма
Продолжительность: ~44 мин.
Перевод: Любительский (двухголосый закадровый) Kiitos
Субтитры: нет
Перевод: er45ty, lyona_lyona, mayra, MontegoKat, vital1312, deadboy, obezyna, brigadir
Работа с видео: herto
Озвучивание: kiitos, Chertenok
Работа со звуком: Saviol
Cведение: kiitos
Режиссёр: Эрик Столц, Дэнни Гордон

В ролях: Теа Леони, Тимоти Дэйли, Патина Миллер, Джеффри Аренд, Эрих Берген, Кэтрин Герцер, Эван Роу, Желько Иванек, Биби Нойвирт
Описание: В центре сюжета находится Элизабет Маккорд, недавно назначенная на пост госсекретаря США. Героиня сериала ежедневно сталкивается со сложными миссиями и ведет глобальные переговоры.



Качество: WEB-DLRip
Формат: AVI
Видео кодек: XviD
Аудио кодек: MP3
Видео: XviD, 720x400 (16:9), 23.976 fps, 1328 kbps
Аудио: MP3, 48 kHz, stereo, 192 kbps

АНОНСЫ ПОПУЛЯРНЫХ РАЗДАЧ
General
Format : AVI
Format/Info : Audio Video Interleave
File size : 500 MiB
Duration : 45mn 42s
Overall bit rate : 1 529 Kbps
Writing application : VirtualDubMod 1.5.10.2 (build 2540/release)
Writing library : VirtualDubMod build 2540/release
Video
ID : 0
Format : MPEG-4 Visual
Format profile : Advanced Simple@L5
Format settings, BVOP : No
Format settings, QPel : No
Format settings, GMC : No warppoints
Format settings, Matrix : Default (H.263)
Codec ID : XVID
Codec ID/Hint : XviD
Duration : 45mn 42s
Bit rate : 1 328 Kbps
Width : 720 pixels
Height : 400 pixels
Display aspect ratio : 16:9
Frame rate : 23.976 fps
Color space : YUV
Chroma subsampling : 4:2:0
Bit depth : 8 bits
Scan type : Progressive
Compression mode : Lossy
Bits/(Pixel*Frame) : 0.192
Stream size : 434 MiB (87%)
Writing library : XviD 1.2.1 (UTC 2008-12-04)
Audio
ID : 1
Format : MPEG Audio
Format version : Version 1
Format profile : Layer 3
Mode : Joint stereo
Codec ID : 55
Codec ID/Hint : MP3
Duration : 45mn 42s
Bit rate mode : Constant
Bit rate : 192 Kbps
Channel(s) : 2 channels
Sampling rate : 48.0 KHz
Compression mode : Lossy
Stream size : 62.8 MiB (13%)
Alignment : Aligned on interleaves
Interleave, duration : 42 ms (1.00 video frame)
Interleave, preload duration : 504 ms
Внимание! Раздача ведётся путём добавления новых серий; при каждом добавлении создётся новый торрент. Чтобы начать докачку новой серии, пользователям необходимо сделать следующее:
(1) остановить скачивание,
(2) удалить старый торрент у себя из клиента (старые серии удалять не надо),
(3) скачать новый торрент и запустить его у себя в клиенте вместо старого, при этом указать клиенту путь в старую папку куда и должно происходить скачивание новых серий.
Ваш клиент при этом должен произвести хеширование (проверку) старой папки (если не производит сам - помогите ему сделать это), и будет докачивать только те серии которых у вас ещё нет. Старые серии при этом не удаляются, а продолжают раздаваться!
Eсли вы уже удалили старые серии, то предотвратить повторную закачку старых серий можно, отжав галочку в соответсвующих местах при запуске нового торрента.



Скачать Государственный.секретарь.Madam.Secretary.(01х01-22.из.22).(Эрик.Столц.Дэнни.Гордон).[2014.политическая.драма.WEB-DLRip].[DVO.(Kiitos)].torrent без регистрации
Золото ЗОЛОТАЯ РАЗДАЧА! СКАЧАННОЕ НЕ ЗАСЧИТЫВАЕТСЯ! Золото
Дата: Зарегистрирован   [ Тип: внутренний ] Как тут cкачать?
MAGNET ссылка
MAGNET ссылка


Скачать .torrent

109 KB

Статус: проверено DHT
Скачан: торрент - 1933 раз, раздача полностью - 52 раз
Размер: 10,74 GB
Оценка:  - (Голосов: 0)
Поблагодарили: 2
Поделиться ссылкой на эту раздачу с друзьями:
В контактеFacebookОдноклассникиTwitterLivejournalМой МирLiveinternet
 

 
Показать сообщения:    


Вы не можете начинать темы
Вы не можете отвечать на сообщения
Вы не можете редактировать свои сообщения
Вы не можете удалять свои сообщения
Вы не можете голосовать в опросах
Вы не можете прикреплять файлы к сообщениям
Вы можете скачивать файлы