Loading...
Error

Скачать Тут / Тутанхамон / Tut (сезон 01) (Дэвид Фон Энкен) [2015, драма, биография, WEB-DLRip] [MVO (IDEAFILM)] торрент без регистрации

 
Статистика раздачи
Размер:  3,13 GB   |    Скачан:  188 раз
Сидов:  1  [  0 KB/s  ]  
 
Автор Сообщение

МихаНЕзатор

[] 

Тут | Tut

Год выпуска: 2015
Страна: США
Жанр: драма, приключения, биография, история
Продолжительность: ~ 00:43:00
Перевод: Профессиональный (многоголосый закадровый) | IdeaFilm
Режиссёр: Дэвид Фон Энкен
В ролях: Бен Кингсли, Эван Джогиа, Нонсо Анози, Сибулла Дин, Александр Сиддиг, Кайли Банбери, Питер Гадиот, Иддо Голдберг, Алистэр Туви, Сайлас Карсон.
Описание: Мини-сериал рассказывает о том, как Тутанхамон совершал свое восхождение к власти и славе в то время, как его советники, друзья и любимые плели интриги во имя своих подлых интересов. Душераздирающие романы, эпические сражения, политические игры, тайные заговоры, ревность и убийства — все это сопровождало самого молодого египетского царя на пути к величию.

Качество: HDTVRip
Формат: AVI
Видео: XviD, 720x400 (16:9), 23,976 fps, ~ 1500 kbps
Аудио: AC3, 48 kHz, 2 ch, 192 kbps - Rus
Субтитры: отсутствуют
АНОНСЫ ПОПУЛЯРНЫХ РАЗДАЧ


Торрент обновлён, добавлена 6-я серия!

Код:

Общее
Полное имя                               : D:\загрузки\Tut (S01) IDEAFILM\TYt.s01e01-02.WEB-DLRip.IdeaFilm.avi
Формат                                   : AVI
Формат/Информация                        : Audio Video Interleave
Размер файла                             : 1,05 Гбайт
Продолжительность                        : 1 ч. 28 м.
Общий поток                              : 1700 Кбит/сек
Программа кодирования                    : VirtualDubMod 1.5.10.2 (build 2540/release)
Библиотека кодирования                   : VirtualDubMod build 2540/release
Видео
Идентификатор                            : 0
Формат                                   : MPEG-4 Visual
Профиль формата                          : Advanced Simple@L5
Параметр BVOP формата                    : 2
Параметр QPel формата                    : Нет
Параметр GMC формата                     : Без точки перехода
Параметр матрицы формата                 : Выборочная
Идентификатор кодека                     : XVID
Идентификатор кодека/Подсказка           : XviD
Продолжительность                        : 1 ч. 28 м.
Битрейт                                  : 1499 Кбит/сек
Ширина                                   : 720 пикселей
Высота                                   : 400 пикселей
Соотношение сторон                       : 16:9
Частота кадров                           : 23,976 кадра/сек
Цветовое пространство                    : YUV
Субдискретизация насыщенности            : 4:2:0
Битовая глубина                          : 8 бит
Тип развёртки                            : Прогрессивная
Метод сжатия                             : С потерями
Бит/(Пиксели*Кадры)                      : 0.217
Размер потока                            : 950 Мбайт (88%)
Библиотека кодирования                   : XviD 1.2.1 (UTC 2008-12-04)
Аудио
Идентификатор                            : 1
Формат                                   : AC-3
Формат/Информация                        : Audio Coding 3
Расширение режима                        : CM (complete main)
Параметр Endianness формата              : Big
Идентификатор кодека                     : 2000
Продолжительность                        : 1 ч. 28 м.
Вид битрейта                             : Постоянный
Битрейт                                  : 192 Кбит/сек
Каналы                                   : 2 канала
Расположение каналов                     : Front: L R
Частота                                  : 48,0 КГц
Битовая глубина                          : 16 бит
Метод сжатия                             : С потерями
Задержка видео                           : 15 мс.
Размер потока                            : 122 Мбайт (11%)
Выравнивание                             : Разделение по промежуткам
Продолжительность промежутка             : 42  мс. (1,00 видеокадр)
Время предзагрузки промежутка            : 500  мс.
Когда раздача ведётся путём добавления новых серий, при каждом добавлении создётся новый торрент. Чтобы начать докачку новой серии, пользователям необходимо сделать следующее:
(1) остановить скачивание,
(2) удалить старый торрент у себя из клиента (старые серии удалять не надо),
(3) скачать новый торрент и запустить его у себя в клиенте вместо старого, при этом указать клиенту путь в старую папку, куда и должно происходить скачивание новых серий.
Ваш клиент при этом должен произвести хеширование (проверку) старой папки (если не производит сам - помогите ему сделать это), и будет докачивать только те серии, которых у вас ещё нет. Старые серии при этом не удаляются, а продолжают раздаваться!
Eсли вы уже удалили старые серии, то предотвратить повторную закачку старых серий можно, отжав галочку в соответсвующих местах при запуске нового торрента. По возможности, желательно не удалять старые серии как можно дольше, чтобы релизёр не столько продолжал раздавать старые серии, а смог сконцентрироваться на новых.




Скачать Тут.Тутанхамон.Tut.(сезон.01).(Дэвид.Фон.Энкен).[2015.драма.биография.WEB-DLRip].[MVO.(IDEAFILM)].torrent без регистрации
Золото ЗОЛОТАЯ РАЗДАЧА! СКАЧАННОЕ НЕ ЗАСЧИТЫВАЕТСЯ! Золото
Дата: Зарегистрирован   [ Тип: внутренний ] Как тут cкачать?
MAGNET ссылка
MAGNET ссылка


Скачать .torrent

17 KB

Статус: проверено DHT
Скачан: торрент - 188 раз, раздача полностью - 29 раз
Размер: 3,13 GB
Оценка:  5 (Голосов: 1)
Поблагодарили: 2
Поделиться ссылкой на эту раздачу с друзьями:
В контактеFacebookОдноклассникиTwitterLivejournalМой МирLiveinternet
 

 
Показать сообщения:    


Вы не можете начинать темы
Вы не можете отвечать на сообщения
Вы не можете редактировать свои сообщения
Вы не можете удалять свои сообщения
Вы не можете голосовать в опросах
Вы не можете прикреплять файлы к сообщениям
Вы можете скачивать файлы