Loading...
Error

Скачать Тот самый человек / The Man (Лес Мейфилд) [2005, боевик, комедия, криминал, WEB-DLRip] [MVO] торрент без регистрации

 
Статистика раздачи
Размер:  1,36 GB   |    Скачан:  97 раз

Полного источника не было: 22 минуты

 
Автор Сообщение

Marsianka

[] 

Информация о фильме
Название: Тот самый человек
Оригинальное название: The Man
Год выхода: 2005
Жанр: боевик, комедия, криминал
Режиссер: Лес Мейфилд
В ролях: Сэмюэл Л. Джексон, Юджин Леви, Мигель Феррер, Люк Госс, Сьюзи Эссман, Энтони Маки, Гиги Райс, Рэйчел Кроуфорд, Филип Акин, Кристофер Мюррэй

О фильме:
В результате ошибки по установлению личности тайный Федеральный агент Деррик Ванн оказывается в одной команде с самым неподходящим на то партнером — приветливым поставщиком стоматологической компании Энди Фидлером.

В череде насыщенных и невероятно веселых приключений, разворачивающихся на улицах Детройта, эта неподходящая парочка пытается провернуть искрометную операцию и тем самым распутать убийство бывшего напарника Ванна. Но по пути они обнаруживают то, чего даже и не ожидали…



Страна: Германия, США / New Line Cinema, Fried Films, Meradin Productions
Продолжительность: 01:23:12
Перевод: Профессиональный (многоголосый закадровый) Tycoon

Файл
Кодек: XviD
Качество: WEB-DLRip
Видео: 720x400, 23,976 fps, 1890 kbps
Звук: 48KHz, AC3, 6ch, 448 Kbps
Общее
Полное имя : The.Man.2005.WEB-DLRip.avi
Формат : AVI
Формат/Информация : Audio Video Interleave
Размер файла : 1,36 Гбайт
Продолжительность : 1 ч. 23 м.
Общий поток : 2347 Кбит/сек
Программа кодирования : VirtualDubMod 1.5.10.3 | www.virtualdub-fr.org || (build 2550/release)
Библиотека кодирования : VirtualDubMod build 2550/release

Видео
Идентификатор : 0
Формат : MPEG-4 Visual
Профиль формата : Advanced Simple@L5
Параметр BVOP формата : 1
Параметр QPel формата : Нет
Параметр GMC формата : Без точки перехода
Параметр матрицы формата : Выборочная
Идентификатор кодека : XVID
Идентификатор кодека/Подсказка : XviD
Продолжительность : 1 ч. 23 м.
Битрейт : 1890 Кбит/сек
Ширина : 720 пикс.
Высота : 400 пикс.
Соотношение сторон : 16:9
Частота кадров : 23,976 кадр/сек
Цветовое пространство : YUV
Подвыборка цветности : 4:2:0
Битовая глубина : 8 бит
Тип развёртки : Прогрессивная
Метод сжатия : С потерями
Бит/(Пиксели*Кадры) : 0.274
Размер потока : 1,10 Гбайт (81%)
Библиотека кодирования : XviD 73

Аудио
Идентификатор : 1
Формат : AC-3
Формат/Информация : Audio Coding 3
Расширение режима : CM (complete main)
Идентификатор кодека : 2000
Продолжительность : 1 ч. 23 м.
Вид битрейта : Постоянный
Битрейт : 448 Кбит/сек
Канал(ы) : 6 канала(ов)
Расположение каналов : Front: L C R, Side: L R, LFE
Частота : 48,0 КГц
Битовая глубина : 16 бит
Метод сжатия : С потерями
Размер потока : 267 Мбайт (19%)
Выравнивание : Разделение по промежуткам
Продолжительность промежутка : 42 мс. (1,00 видеокадр)
Время предзагрузки промежутка : 500 ms
Релиз от: Leon-masl



Скачать Тот.самый.человек.The.Man.(Лес.Мейфилд).[2005.боевик.комедия.криминал.WEB-DLRip].[MVO].torrent без регистрации
Золото ЗОЛОТАЯ РАЗДАЧА! СКАЧАННОЕ НЕ ЗАСЧИТЫВАЕТСЯ! Золото
Дата: Зарегистрирован   [ Тип: внутренний ] Как тут cкачать?
MAGNET ссылка
MAGNET ссылка


Скачать .torrent

15 KB

Статус: проверено DHT
Скачан: торрент - 97 раз, раздача полностью - 6 раз
Размер: 1,36 GB
Оценка:  - (Голосов: 0)
Поблагодарили: 0
Поделиться ссылкой на эту раздачу с друзьями:
В контактеFacebookОдноклассникиTwitterLivejournalМой МирLiveinternet
 

 
Показать сообщения:    


Вы не можете начинать темы
Вы не можете отвечать на сообщения
Вы не можете редактировать свои сообщения
Вы не можете удалять свои сообщения
Вы не можете голосовать в опросах
Вы не можете прикреплять файлы к сообщениям
Вы можете скачивать файлы