Loading...
Error

Скачать Архив смерти / Archiv des Todes (01-13 из 13) (Руди Курц) [1980, военный, DVDRip] [MVO]+[Deu] торрент без регистрации

 
Статистика раздачи
Размер:  9,47 GB   |    Скачан:  118 раз
Сидов:  1  [  0 KB/s  ]  
 
Автор Сообщение

МихаНЕзатор

[] 

Страна: ГДР
Производство: Киностудия Дефа, Deutscher Fernsehfunk (DFF)
Жанр: военный
Год выпуска: 1980
Продолжительность: 13 х ~ 00:58:00
Перевод: Профессиональный многоголосый закадровый
Оригинальная аудиодорожка: Немецкая
Cубтитры: Нет

Режиссер: Руди Курц

В ролях: Юрген Цартманн, Гойко Митич, Леон Немчик, Кжиштоф Строиньски, Барбара Брыльска, Альфред Струве, Герд Блахушек, Ренате Блюме, Ханньо Хассе, Харальд Вармбрунн, Йоахим Томашевски

Описание: В конце 1944-го года пять бойцов Сопротивления пытаются проникнуть на территорию оккупированной Польши. Руководители группы: немецкий коммунист Георг и советский разведчик Борис. Кроме них в группу входят капитан вермахта Эрнст, перешедший на сторону РККА, а также бывший член гитлерюгенда Хайнер и польский партизан Янек. По заданию советской военной контрразведки группа должна найти «архив смерти», предположительно расположенный в одном из рудников под Краковом. Архив содержит очень важные разведывательные материалы, а также планы по созданию подпольной нацистской сети в послевоенный период.



Качество: DVDRip исх.DVD9 R2
Контейнер: AVI
Видео: 656x480 (1.37:1), 25 fps, XviD ~1427 kbps avg, 0.18 bit/pixel
Аудио: #1: 48 kHz, AC3 2.0 ~192.00 kbps avg (RUS)
Аудио: #2: 48 kHz, AC3 2.0 ~192.00 kbps avg (DEUTSCH)

АНОНСЫ ПОПУЛЯРНЫХ РАЗДАЧ
Общее
Полное имя : D:1АААArhiv.smerti.(DVDRip,XviD,Rus,Deu).by.HeDgEhOtArhiv.smerti.01.(DVDRip,XviD,Rus,Deu).by.HeDgEhOt.avi
Формат : AVI
Формат/Информация : Audio Video Interleave
Размер файла : 746 Мбайт
Продолжительность : 57 м.
Общий поток : 1827 Кбит/сек
Название фильма : Архив смерти / Archiv des Todes (1980)
Правообладатель : HeDgEhOt®

Видео
Идентификатор : 0
Формат : MPEG-4 Visual
Профиль формата : Advanced Simple@L5
Параметр BVOP формата : 1
Параметр QPel формата : Нет
Параметр GMC формата : Без точки перехода
Параметр матрицы формата : Default (MPEG)
Идентификатор кодека : XVID
Идентификатор кодека/Подсказка : XviD
Продолжительность : 57 м.
Битрейт : 1428 Кбит/сек
Ширина : 656 пикселей
Высота : 480 пикселей
Соотношение сторон : 4:3
Частота кадров : 25,000 кадров/сек
Цветовое пространство : YUV
Субдискретизация насыщенности : 4:2:0
Битовая глубина : 8 бит
Тип развёртки : Прогрессивная
Метод сжатия : С потерями
Бит/(Пиксели*Кадры) : 0.181
Размер потока : 583 Мбайт (78%)
Библиотека кодирования : XviD 1.2.1 (UTC 2008-12-04)

Аудио #1
Идентификатор : 1
Формат : AC-3
Формат/Информация : Audio Coding 3
Расширение режима : CM (complete main)
Параметр Endianness формата : Big
Идентификатор кодека : 2000
Продолжительность : 57 м.
Вид битрейта : Постоянный
Битрейт : 192 Кбит/сек
Каналы : 2 канала
Расположение каналов : Front: L R
Частота : 48,0 КГц
Битовая глубина : 16 бит
Метод сжатия : С потерями
Размер потока : 78,4 Мбайт (11%)
Выравнивание : Разделение по промежуткам
Продолжительность промежутка : 40 мс. (1,00 видеокадр)
Время предзагрузки промежутка : 500 мс.
Язык : Russian

Аудио #2
Идентификатор : 2
Формат : AC-3
Формат/Информация : Audio Coding 3
Расширение режима : CM (complete main)
Параметр Endianness формата : Big
Идентификатор кодека : 2000
Продолжительность : 57 м.
Вид битрейта : Постоянный
Битрейт : 192 Кбит/сек
Каналы : 2 канала
Расположение каналов : Front: L R
Частота : 48,0 КГц
Битовая глубина : 16 бит
Метод сжатия : С потерями
Размер потока : 78,4 Мбайт (11%)
Выравнивание : Соединение по промежуткам
Продолжительность промежутка : 40 мс. (1,00 видеокадр)
Время предзагрузки промежутка : 512 мс.
Язык : Deutsch
Релиз: HeDgEhOt



Скачать Архив.смерти.Archiv.des.Todes.(01-13.из.13).(Руди.Курц).[1980.военный.DVDRip].[MVO]+[Deu].torrent без регистрации
Золото ЗОЛОТАЯ РАЗДАЧА! СКАЧАННОЕ НЕ ЗАСЧИТЫВАЕТСЯ! Золото
Дата: Зарегистрирован   [ Тип: внутренний ] Как тут cкачать?
MAGNET ссылка
MAGNET ссылка


Скачать .torrent

49 KB

Статус: проверено DHT
Скачан: торрент - 118 раз, раздача полностью - 22 раз
Размер: 9,47 GB
Оценка:  5 (Голосов: 1)
Поблагодарили: 1
Поделиться ссылкой на эту раздачу с друзьями:
В контактеFacebookОдноклассникиTwitterLivejournalМой МирLiveinternet
 

 
Показать сообщения:    


Вы не можете начинать темы
Вы не можете отвечать на сообщения
Вы не можете редактировать свои сообщения
Вы не можете удалять свои сообщения
Вы не можете голосовать в опросах
Вы не можете прикреплять файлы к сообщениям
Вы можете скачивать файлы