Loading...
Error

Скачать Махабхарата / Mahabharat (001-267 из 267) (Сиддхартх Ананд Кумар и др.) [2013-2014, эпос, исторический, драма, HDTVRip] [720p] [VO] торрент без регистрации

 
Статистика раздачи
Размер:  80,11 GB   |    Скачан:  424 раза
Сидов:  1  [  0 KB/s  ]  
 
Автор Сообщение

МихаНЕзатор

[] 

Информация о фильме
Название: Махабхарата
Оригинальное название: Mahabharat
Год выпуска: 2013-2014
Жанр: эпос, исторический, драма
Режиссер: Сиддхартх Ананд Кумар, Амарприт Г.С. Чхавда, Камал Монга, Локнатх Пандей

В ролях: Саурабх Радж Джейн, Шахир Шейх, Пуджа Шарма, Ахам Шарма, Арав Чхоудхари, Тхакур Ануп Сингх, Швета Гаутам, Саянтани Гхош, Вибха Ананд, Лаванья Бхардвадж, Деблина Чаттерджи, Рийя Дипси, Апарна Диксит, Арун Рана, Джаянтика Сенгупта, Манси Шарма, Нисар Кхан, Пранит Бхатт, Рио Кападиа, Арпит Ранка

О фильме: В центре внимания два рода — Пандавы и Кауравы. Они принадлежат к одной династии Куру, но соперничество между ними не знает границ. Род Пандавы олицетворяет в себе светлое, доброе, божественное начало, в то время как род Кауравы — это средоточие зла, зависти и подлости. Соперничество между двумя ветвями одной династии происходит за власть, богатство, владение столицей страны — Хастинапур. После того как старший и мудрейший из рода Пандавов Юдхиштхир становится царем страны, ненависть и злоба Кауравов переходит все границы: они придумывают подлый и коварный план.



Страна: Индия
Студия: Swastik Pictures
Продолжительность: 252 х ~ 00:20:00
Перевод: Любительский одноголосый [[Яшодарани даси],Озвучка / Автор перевода: Ткачёва Елена/Абхинанда дас]]

Файл
Кодек: MPEG-4 AVC
Качество: HDTVRip (720p)
Видео: ~ 1800 Кбит/с, 1280х720
Звук: Русский (AAC, 2 ch, 128 Кбит/с)

АНОНСЫ ПОПУЛЯРНЫХ РАЗДАЧ


Торрент обновлён, добавлена 267-я серия!

Общее
Полное имя : D:\Кино\Махабхарата 2013 Rus\008 - Махабхарата 2013 Rus.mp4
Формат : MPEG-4
Профиль формата : Base Media
Идентификатор кодека : isom
Размер файла : 288 Мбайт
Продолжительность : 20 м.
Общий поток : 1932 Кбит/сек
Программа кодирования : Lavf54.59.106

Видео
Идентификатор : 1
Формат : AVC
Формат/Информация : Advanced Video Codec
Профиль формата : High@L3.1
Параметр CABAC формата : Да
Параметр ReFrames формата : 4 кадра
Идентификатор кодека : avc1
Идентификатор кодека/Информация : Advanced Video Coding
Продолжительность : 20 м.
Битрейт : 1800 Кбит/сек
Ширина : 1280 пикселей
Высота : 720 пикселей
Соотношение сторон : 16:9
Режим частоты кадров : Постоянный
Частота кадров : 25,000 кадров/сек
Цветовое пространство : YUV
Субдискретизация насыщенности : 4:2:0
Битовая глубина : 8 бит
Тип развёртки : Прогрессивная
Бит/(Пиксели*Кадры) : 0.078
Размер потока : 268 Мбайт (93%)
Библиотека кодирования : x264 core 129
Настройки программы : cabac=1 / ref=3 / deblock=1:0:0 / analyse=0x3:0x113 / me=hex / subme=7 / psy=1 / psy_rd=1.00:0.00 / mixed_ref=1 / me_range=16 / chroma_me=1 / trellis=1 / 8x8dct=1 / cqm=0 / deadzone=21,11 / fast_pskip=1 / chroma_qp_offset=-2 / threads=24 / lookahead_threads=4 / sliced_threads=0 / nr=0 / decimate=1 / interlaced=0 / bluray_compat=0 / constrained_intra=0 / bframes=3 / b_pyramid=2 / b_adapt=1 / b_bias=0 / direct=1 / weightb=1 / open_gop=0 / weightp=2 / keyint=250 / keyint_min=25 / scenecut=40 / intra_refresh=0 / rc_lookahead=40 / rc=abr / mbtree=1 / bitrate=1800 / ratetol=1.0 / qcomp=0.60 / qpmin=0 / qpmax=69 / qpstep=4 / ip_ratio=1.40 / aq=1:1.00

Аудио
Идентификатор : 2
Формат : AAC
Формат/Информация : Advanced Audio Codec
Профиль формата : LC
Идентификатор кодека : 40
Продолжительность : 20 м.
Duration_LastFrame : -21 мс.
Вид битрейта : Постоянный
Битрейт : 128 Кбит/сек
Каналы : 2 канала
Расположение каналов : Front: L R
Частота : 44,1 КГц
Метод сжатия : С потерями
Размер потока : 19,1 Мбайт (7%)



Скачать Махабхарата.Mahabharat.(001-267.из.267).(Сиддхартх.Ананд.Кумар.и.др.).[2013-2014.эпос.исторический.драма.HDTVRip].[720p].[VO].torrent без регистрации
Золото ЗОЛОТАЯ РАЗДАЧА! СКАЧАННОЕ НЕ ЗАСЧИТЫВАЕТСЯ! Золото
Дата: Зарегистрирован   [ Тип: внутренний ] Как тут cкачать?
MAGNET ссылка
MAGNET ссылка


Скачать .torrent

420 KB

Статус: проверено DHT
Скачан: торрент - 424 раз, раздача полностью - 230 раз
Размер: 80,11 GB
Оценка:  - (Голосов: 0)
Поблагодарили: 2
Поделиться ссылкой на эту раздачу с друзьями:
В контактеFacebookОдноклассникиTwitterLivejournalМой МирLiveinternet
 

 
Показать сообщения:    


Вы не можете начинать темы
Вы не можете отвечать на сообщения
Вы не можете редактировать свои сообщения
Вы не можете удалять свои сообщения
Вы не можете голосовать в опросах
Вы не можете прикреплять файлы к сообщениям
Вы можете скачивать файлы