Loading...
Error

Скачать Сражение за тяжёлую воду / Kampen om tungtvannet (01x01-06 из 06) (Пер-Олав Соренсен) [2015, драма, военный, история, BDRip] [1080p] [AVO (Д. Есарев)]+[Nor]+[Sub Rus] торрент без регистрации

 
Статистика раздачи
Размер:  19,89 GB   |    Скачан:  123 раза
Сидов:  1  [  0 KB/s  ]  
 
Автор Сообщение

МихаНЕзатор

[] 

Информация о фильме
Название: Сражение за тяжёлую воду
Оригинальное название: Kampen om tungtvannet
Год выхода: 2015
Жанр: Драма, военный, история
Режиссер: Пер-Олав Соренсен

В ролях: Андреас Дёлер, Роберт Хунгер-Бюлер, Марк Беньямин Пух, Кристоф Бах, Пери Баумейстер, Эспен Ребол Бьерке, Торстейн Бьёрклунд, Оле Кристоффер Эртвог, Ейрик Эвьен

О фильме: Сериал рассказывает о диверсионной операции по уничтожению завода в норвежском посёлке Рьюкан, на котором во время второй мировой войны было налажено производство тяжёлой воды, используемой гитлеровской Германией в собственном ядерном проекте для производства ядерного оружия. История показана с четырёх точек зрения - немецкой, союзников по антигитлеровской коалиции, команды диверсантов, а также со стороны компании «Norsk Hydro», владеющей заводом..

Релиз от

Страна: Норвегия
Продолжительность: ~ 00:45:00 серия
Перевод: Авторский (одноголосый, закадровый) - Дмитрий Есарев

Файл
Формат: MKV
Кодек: H.264
Качество: BDRip (1080p)
Видео: 1920x1080 at 25 fps, MPEG-4 AVC, ~8275 kbps avg
Звук:
Аудио#1: Russian: DTS 5.1 48KHz@1509kbps (16bit)
Аудио#2: Russian: AC3 5.1 48KHz@448kbps
Аудио#3: Norvegian: AC3 5.1 48KHz@448kbps
Субтитры: Russian

АНОНСЫ ПОПУЛЯРНЫХ РАЗДАЧ

Kampen om tungtvannet (2015) [1080p] HDLine

General
Unique ID : 239534485159426186289288950031785251078 (0xB434A9ECB654450C8E4DDDF2DC89D106)
Complete name : The.Battle.for.Heavy.Water.2015.S01.E01.x264.BDRip.1080p.HDLine.mkv
Format : Matroska
Format version : Version 2
File size : 3.35 GiB
Duration : 44mn 54s
Overall bit rate : 10.7 Mbps
Movie name : The.Battle.for.Heavy.Water.2015.S01.E01.x264.BDRip.1080p.HDLine
Encoded date : UTC 2015-07-19 17:33:18
Writing application : mkvmerge v8.2.0 ('World of Adventure') 64bit
Writing library : libebml v1.3.1 + libmatroska v1.4.2
Attachements : Cover.jpg
DURATION : 00:42:24.908000000
NUMBER_OF_FRAMES : 446
NUMBER_OF_BYTES : 34183
_STATISTICS_WRITING_APP : mkvmerge v8.2.0 ('World of Adventure') 64bit
_STATISTICS_WRITING_DATE_UTC : 2015-07-19 17:33:18
_STATISTICS_TAGS : BPS DURATION NUMBER_OF_FRAMES NUMBER_OF_BYTES

Video
ID : 1
Format : AVC
Format/Info : Advanced Video Codec
Format profile : High@L4.1
Format settings, CABAC : Yes
Format settings, ReFrames : 3 frames
Codec ID : V_MPEG4/ISO/AVC
Duration : 44mn 54s
Bit rate : 8 275 Kbps
Width : 1 920 pixels
Height : 1 080 pixels
Display aspect ratio : 16:9
Frame rate mode : Constant
Frame rate : 25.000 fps
Color space : YUV
Chroma subsampling : 4:2:0
Bit depth : 8 bits
Scan type : Progressive
Bits/(Pixel*Frame) : 0.160
Stream size : 2.53 GiB (75%)
Title : Kampen om tungtvannet (2015) S01-E01
Writing library : x264 core 146 r2538kMod 121396c
Encoding settings : cabac=1 / ref=4 / deblock=1:0:0 / analyse=0x3:0x133 / me=umh / subme=10 / psy=1 / fade_compensate=0.00 / psy_rd=1.00:0.00 / mixed_ref=1 / me_range=24 / chroma_me=1 / trellis=2 / 8x8dct=1 / cqm=0 / deadzone=21,11 / fast_pskip=1 / chroma_qp_offset=-2 / threads=10 / lookahead_threads=1 / sliced_threads=0 / nr=0 / decimate=1 / interlaced=0 / bluray_compat=1 / constrained_intra=0 / fgo=0 / bframes=3 / b_pyramid=1 / b_adapt=2 / b_bias=0 / direct=3 / weightb=1 / open_gop=0 / weightp=1 / keyint=250 / keyint_min=1 / scenecut=40 / intra_refresh=0 / rc_lookahead=60 / rc=2pass / mbtree=1 / bitrate=8275 / ratetol=1.0 / qcomp=0.60 / qpmin=0 / qpmax=69 / qpstep=4 / cplxblur=20.0 / qblur=0.5 / ip_ratio=1.40 / aq=1:1.00
Language : Norwegian
Default : Yes
Forced : No
DURATION : 00:44:54.000000000
NUMBER_OF_FRAMES : 67350
NUMBER_OF_BYTES : 2785818712
_STATISTICS_WRITING_APP : mkvmerge v8.2.0 ('World of Adventure') 64bit
_STATISTICS_WRITING_DATE_UTC : 2015-07-19 17:33:18
_STATISTICS_TAGS : BPS DURATION NUMBER_OF_FRAMES NUMBER_OF_BYTES

Audio #1
ID : 2
Format : DTS
Format/Info : Digital Theater Systems
Mode : 16
Format settings, Endianness : Big
Codec ID : A_DTS
Duration : 44mn 54s
Bit rate mode : Constant
Bit rate : 1 509 Kbps
Channel(s) : 6 channels
Channel positions : Front: L C R, Side: L R, LFE
Sampling rate : 48.0 KHz
Bit depth : 16 bits
Compression mode : Lossy
Stream size : 485 MiB (14%)
Title : DTS 5.1 48KHz@1509kbps
Language : Russian
Default : Yes
Forced : No

Audio #2
ID : 3
Format : AC-3
Format/Info : Audio Coding 3
Mode extension : CM (complete main)
Format settings, Endianness : Big
Codec ID : A_AC3
Duration : 44mn 54s
Bit rate mode : Constant
Bit rate : 448 Kbps
Channel(s) : 6 channels
Channel positions : Front: L C R, Side: L R, LFE
Sampling rate : 48.0 KHz
Bit depth : 16 bits
Compression mode : Lossy
Stream size : 144 MiB (4%)
Title : AC3 5.1 48KHz@448kbps
Language : Russian
Default : No
Forced : No

Audio #3
ID : 4
Format : AC-3
Format/Info : Audio Coding 3
Mode extension : CM (complete main)
Format settings, Endianness : Big
Codec ID : A_AC3
Duration : 44mn 54s
Bit rate mode : Constant
Bit rate : 448 Kbps
Channel(s) : 6 channels
Channel positions : Front: L C R, Side: L R, LFE
Sampling rate : 48.0 KHz
Bit depth : 16 bits
Compression mode : Lossy
Stream size : 144 MiB (4%)
Title : AC3 5.1 48KHz@448kbps
Language : Norwegian
Default : No
Forced : No

Text
ID : 5
Format : UTF-8
Codec ID : S_TEXT/UTF8
Codec ID/Info : UTF-8 Plain Text
Language : Russian
Default : No
Forced : No



Скачать Сражение.за.тяжёлую.воду.Kampen.om.tungtvannet.(01x01-06.из.06).(Пер-Олав.Соренсен).[2015.драма.военный.история.BDRip].[1080p].[AVO.(Д.Есарев)]+[Nor]+[Sub.Rus].torrent без регистрации
Золото ЗОЛОТАЯ РАЗДАЧА! СКАЧАННОЕ НЕ ЗАСЧИТЫВАЕТСЯ! Золото
Дата: Зарегистрирован   [ Тип: внутренний ] Как тут cкачать?
MAGNET ссылка
MAGNET ссылка


Скачать .torrent

101 KB

Статус: проверено DHT
Скачан: торрент - 123 раз, раздача полностью - 2 раз
Размер: 19,89 GB
Оценка:  - (Голосов: 0)
Поблагодарили: 1
Поделиться ссылкой на эту раздачу с друзьями:
В контактеFacebookОдноклассникиTwitterLivejournalМой МирLiveinternet
 

 
Показать сообщения:    


Вы не можете начинать темы
Вы не можете отвечать на сообщения
Вы не можете редактировать свои сообщения
Вы не можете удалять свои сообщения
Вы не можете голосовать в опросах
Вы не можете прикреплять файлы к сообщениям
Вы можете скачивать файлы