Loading...
Error

Скачать Миллион способов потерять голову / A Million Ways to Die in the West (Сет МакФарлейн) [2014, комедия, вестерн, BDRip] [1080p] [Dub] [Театральная версия] [R.G. GoldenShara] торрент без регистрации

Статистика раздачи
Размер:  4,36 GB   |    Скачан:  63 раза

Полного источника не было: 22 дня

 
 
 
Автор Сообщение

DimoNsteR

[] 

Миллион способов потерять голову
A Million Ways to Die in the West



Год выпуска: 2014
Выпущено: США
Жанр: комедия, вестерн
Продолжительность: 01:56:01
Перевод: Профессиональный (полное дублирование)
Субтитры: Русские (Full)

Режиссер: Сет МакФарлейн

В ролях: Сет МакФарлейн, Шарлиз Терон, Аманда Сайфред, Лиам Нисон, Джованни Рибизи, Нил Патрик Харрис, Сара Силверман, Кристофер Хэйген, Уэс Стьюди, Мэтт Кларк

Описание: Угораздило же влюбиться не в том месте и не в то время. Здесь хамят в ресторанах, о горячей воде слагают легенды, да и с транспортом полный коллапс. Но у таинственной незнакомки отменная фигура, да и стреляет она без промаха. Кто же по своей воле откажется от такой красотки?







Качество: BDRip 1080p
Формат: MKV
Видео кодек: H.264
Аудио кодек: AC3
Видео: 1920х800 (2.40:1), 4928 kbps, 23.976 fps
Аудио: Русский (AC-3, 6ch, 448 kbps)

Релиз by Bullit

Код:


Общее
Уникальный идентификатор                 : 248736154037906794037388186734469160855 (0xBB20D73A2B27FD719CE53A66BE419F97)
Формат                                   : Matroska
Версия формата                           : Version 4 / Version 2
Размер файла                             : 4,36 Гбайт
Продолжительность                        : 1 ч. 56 м.
Общий поток                              : 5377 Кбит/сек
Название фильма                          : Миллион способов потерять голову (2014) — A Million Ways to Die in the West BDRip 1080p by R.G. GoldenShara
Дата кодирования                         : UTC 2016-12-19 10:05:50
Программа кодирования                    : mkvmerge v9.6.0 ('Slave To Your Mind') 64bit
Библиотека кодирования                   : libebml v1.3.4 + libmatroska v1.4.5

Видео
Идентификатор                            : 1
Формат                                   : AVC
Формат/Информация                        : Advanced Video Codec
Профиль формата                          : High@L4.1
Параметр CABAC формата                   : Да
Параметр ReFrames формата                : 4 кадра
Идентификатор кодека                     : V_MPEG4/ISO/AVC
Продолжительность                        : 1 ч. 56 м.
Битрейт                                  : 4928 Кбит/сек
Ширина                                   : 1920 пикселей
Высота                                   : 800 пикселей
Соотношение сторон                       : 2,40:1
Режим частоты кадров                     : Постоянный
Частота кадров                           : 23,976 (24000/1001) кадра/сек
Цветовое пространство                    : YUV
Субдискретизация насыщенности            : 4:2:0
Битовая глубина                          : 8 бит
Тип развёртки                            : Прогрессивная
Бит/(Пиксели*Кадры)                      : 0.134
Размер потока                            : 3,99 Гбайт (92%)
Заголовок                                : Миллион способов потерять голову (2014) — A Million Ways to Die in the West
Библиотека кодирования                   : x264 core 142 r2431 ac76440
Настройки программы                      : cabac=1 / ref=4 / deblock=1:-3:-3 / analyse=0x3:0x133 / me=umh / subme=11 / psy=1 / psy_rd=1.00:0.00 / mixed_ref=1 / me_range=32 / chroma_me=1 / trellis=2 / 8x8dct=1 / cqm=0 / deadzone=21,11 / fast_pskip=0 / chroma_qp_offset=-4 / threads=12 / lookahead_threads=2 / sliced_threads=0 / nr=0 / decimate=0 / interlaced=0 / bluray_compat=0 / constrained_intra=0 / bframes=8 / b_pyramid=2 / b_adapt=2 / b_bias=0 / direct=3 / weightb=1 / open_gop=0 / weightp=2 / keyint=230 / keyint_min=22 / scenecut=40 / intra_refresh=0 / rc_lookahead=40 / rc=2pass / mbtree=1 / bitrate=4928 / ratetol=1.0 / qcomp=0.60 / qpmin=0 / qpmax=69 / qpstep=4 / cplxblur=20.0 / qblur=0.5 / vbv_maxrate=62500 / vbv_bufsize=78125 / nal_hrd=none / filler=0 / ip_ratio=1.40 / aq=1:1.00
Язык                                     : English
Default                                  : Да
Forced                                   : Нет

Аудио
Идентификатор                            : 2
Формат                                   : AC-3
Формат/Информация                        : Audio Coding 3
Расширение режима                        : CM (complete main)
Параметр Endianness формата              : Big
Идентификатор кодека                     : A_AC3
Продолжительность                        : 1 ч. 56 м.
Вид битрейта                             : Постоянный
Битрейт                                  : 448 Кбит/сек
Каналы                                   : 6 каналов
Расположение каналов                     : Front: L C R, Side: L R, LFE
Частота                                  : 48,0 КГц
Частота кадров                           : 31,250 кадров/сек (1536 spf)
Битовая глубина                          : 16 бит
Метод сжатия                             : С потерями
Размер потока                            : 372 Мбайт (8%)
Заголовок                                : Дубляж (Лицензия BD CEE)
Язык                                     : Russian
Default                                  : Да
Forced                                   : Нет

Текст
Идентификатор                            : 3
Формат                                   : UTF-8
Идентификатор кодека                     : S_TEXT/UTF8
Идентификатор кодека/Информация          : UTF-8 Plain Text
Продолжительность                        : 1 ч. 52 м.
Битрейт                                  : 103 бит/сек
Count of elements                        : 1653
Размер потока                            : 85,9 Кбайт (0%)
Заголовок                                : Full
Язык                                     : Russian
Default                                  : Нет
Forced                                   : Нет

Меню
00:00:00.000                             : en:00:00:00.000
00:03:02.140                             : en:00:03:02.140
00:08:25.797                             : en:00:08:25.797
00:12:26.996                             : en:00:12:26.996
00:18:24.895                             : en:00:18:24.895
00:23:06.176                             : en:00:23:06.176
00:28:13.442                             : en:00:28:13.442
00:35:10.442                             : en:00:35:10.442
00:39:33.705                             : en:00:39:33.705
00:44:59.822                             : en:00:44:59.822
00:50:14.470                             : en:00:50:14.470
00:58:14.533                             : en:00:58:14.533
01:05:44.941                             : en:01:05:44.941
01:13:28.070                             : en:01:13:28.070
01:17:55.129                             : en:01:17:55.129
01:23:44.561                             : en:01:23:44.561
01:27:24.656                             : en:01:27:24.656
01:35:27.889                             : en:01:35:27.889
01:42:52.375                             : en:01:42:52.375
01:49:42.951                             : en:01:49:42.951



Скачать Миллион.способов.потерять.голову.A.Million.Ways.to.Die.in.the.West.(Сет.МакФарлейн).[2014.комедия.вестерн.BDRip].[1080p].[Dub].[Театральная.версия].[R.G.GoldenShara].torrent без регистрации
Золото ЗОЛОТАЯ РАЗДАЧА! СКАЧАННОЕ НЕ ЗАСЧИТЫВАЕТСЯ! Золото
Дата: Зарегистрирован   [ Тип: внутренний ] Как тут cкачать?
MAGNET ссылка
MAGNET ссылка


Скачать .torrent

11 KB

Статус: проверено
Скачан: торрент - 63 раз, раздача полностью - 244 раз
Размер: 4,36 GB
Оценка:  5 (Голосов: 4)
Поблагодарили: 9
Поделиться ссылкой на эту раздачу с друзьями:
В контактеFacebookОдноклассникиTwitterLivejournalМой МирLiveinternet
 

 

Spartak911

[] 

dimonster23
Спасибо, что делишься и не даешь уйти в небытие качественным рипам Буллита! az
 

StarCinema

[] 

Релиз обновлен 19.12.2016. Добавлены субтитры и разбивка на главы. Желающим просьба перекачать заново торрент-файл.
 
Показать сообщения:    


Вы не можете начинать темы
Вы не можете отвечать на сообщения
Вы не можете редактировать свои сообщения
Вы не можете удалять свои сообщения
Вы не можете голосовать в опросах
Вы не можете прикреплять файлы к сообщениям
Вы можете скачивать файлы