Loading...
Error

Скачать Затерянный мир / The Lost World (Тимоти Бонд) [1992, фантастика, фэнтези, приключения, DVDRip] [MVO]+[Оригинал]+[Sub] торрент без регистрации

 
Статистика раздачи
Размер:  1,46 GB   |    Скачан:  108 раз
Сидов:  3  [  0 KB/s  ]  
 
Автор Сообщение

Marsianka

[] 

Страна: Канада, США
Производство: Maple Pictures

Жанр: фантастика, фэнтези, приключения
Год выпуска: 1992
Продолжительность: 01:34:41

Перевод: Профессиональный (многоголосый, закадровый)
Оригинальная аудиодорожка: английский
Cубтитры: русский

Режиссер: Тимоти Бонд / Timothi Bond

В ролях:
Джон Рис-Дэвис, Дэвид Уорнер, Эрик МакКормак, Натания Стэнфорд, Даррен Питер Мерсер, Тамара Горски, Сала Каме, Фиделис Чеза, Джон Чиносияни, Инносент Чода...

Описание:
Экстравагантный профессор Челленджер и падкий на сенсации репортер Эдвард Мелоун загораются идеей организовать экспедицию в Африку. Ее цель — подтвердить или опровергнуть утверждения Челленджера о том, что в самом сердце черного континента еще сохранились гигантские доисторические животные. К ним присоединяется профессор Саммерли, убежденный в том, что заявления коллеги безосновательны; Дженни Нильсон, состоятельная и привлекательная дама-фотограф; 13-летний безбилетник Джим; и чернокожая красавица Малу, взявшаяся сопроводить отважных исследователей через таинственные джунгли. К изумлению путешественников, их самые смелые догадки подтверждаются: они обнаруживают землю, на которой обитают динозавры, птеродактили и первобытные люди. Однако экспедиция, начинавшаяся как курьез, теперь оборачивается нешуточной борьбой за выживание. Наши герои должны оставить в прошлом свои разногласия и распри, чтобы благополучно покинуть этот удивительный край, названный ими Затерянный Мир…


Исходник: DVD5 R5
Тип релиза: DVDRip
Контейнер: AVI

Видео: 688x512 (4:3), 25,000 fps, XviD ~ 1806 kbps avg, 0.205 bit/pixel
Аудио: 48 kHz, Dolby Digital AC3 2.0, 192 kbps MVO
Аудио: 48 kHz, Dolby Digital AC3 2.0, 192 kbps Английский
Субтитры: SoftSub (srt)
Раздача от:

Общее
Полное имя : Zateryannyy.mir.1992.DVDRip_[New-team]_by_AVP_Studio.avi
Формат : AVI
Формат/Информация : Audio Video Interleave
Размер файла : 1,46 Гбайт
Продолжительность : 1 ч. 34 м.
Общий поток : 2205 Кбит/сек
Программа кодирования : VirtualDubModRus 1.5.10.2 (build 2542/release)
Библиотека кодирования : VirtualDubMod build 2542/release

Видео
Идентификатор : 0
Формат : MPEG-4 Visual
Профиль формата : Advanced Simple@L5
Параметр BVOP формата : 1
Параметр QPel формата : Нет
Параметр GMC формата : Без точки перехода
Параметр матрицы формата : Выборочная
Идентификатор кодека : XVID
Идентификатор кодека/Подсказка : XviD
Продолжительность : 1 ч. 34 м.
Битрейт : 1806 Кбит/сек
Ширина : 688 пикселей
Высота : 512 пикселей
Соотношение сторон : 4:3
Частота кадров : 25,000 кадров/сек
Цветовое пространство : YUV
Субдискретизация насыщенности : 4:2:0
Битовая глубина : 8 бит
Тип развёртки : Прогрессивная
Метод сжатия : С потерями
Бит/(Пиксели*Кадры) : 0.205
Размер потока : 1,19 Гбайт (82%)
Библиотека кодирования : XviD 73

Аудио #1
Идентификатор : 1
Формат : AC-3
Формат/Информация : Audio Coding 3
Расширение режима : CM (complete main)
Параметр Endianness формата : Big
Идентификатор кодека : 2000
Продолжительность : 1 ч. 34 м.
Вид битрейта : Постоянный
Битрейт : 192 Кбит/сек
Каналы : 2 канала
Расположение каналов : Front: L R
Частота : 48,0 КГц
Битовая глубина : 16 бит
Метод сжатия : С потерями
Размер потока : 130 Мбайт (9%)
Выравнивание : Разделение по промежуткам
Продолжительность промежутка : 40 мс. (1,00 видеокадр)
Время предзагрузки промежутка : 500 мс.

Аудио #2
Идентификатор : 2
Формат : AC-3
Формат/Информация : Audio Coding 3
Профиль формата : Dolby Digital
Расширение режима : CM (complete main)
Параметр Endianness формата : Big
Идентификатор кодека : 2000
Продолжительность : 1 ч. 34 м.
Вид битрейта : Постоянный
Битрейт : 192 Кбит/сек
Каналы : 2 канала
Расположение каналов : Front: L R
Частота : 48,0 КГц
Битовая глубина : 16 бит
Метод сжатия : С потерями
Размер потока : 130 Мбайт (9%)
Выравнивание : Разделение по промежуткам
Продолжительность промежутка : 40 мс. (1,00 видеокадр)
Время предзагрузки промежутка : 500 мс

«Затерянный мир» и «Возвращение в затерянный мир» снимались почти в одно и то же время, поэтому титры в обоих фильмах одинаковые.
Несмотря на то, что в оригинальном романе экспедиция отправилась в Южную Америку, в фильме действия переносят в Африку.
В оригинале произведения кроме Челленджера, Меллоуна, Саммерли четвёрку героев этого цикла романов Конан Дойля составляет английский аристократ и первокласный стрелок лорд Джон Рокстон, из мелодраматических соображений заменённый в экранизации американской фотографом и лондонским мальчишкой.



Скачать Затерянный.мир.The.Lost.World.(Тимоти.Бонд).[1992.фантастика.фэнтези.приключения.DVDRip].[MVO]+[Оригинал]+[Sub].torrent без регистрации
Золото ЗОЛОТАЯ РАЗДАЧА! СКАЧАННОЕ НЕ ЗАСЧИТЫВАЕТСЯ! Золото
Дата: Зарегистрирован   [ Тип: внешний ] Как тут cкачать?
MAGNET ссылка
MAGNET ссылка


Скачать .torrent

16 KB

Статус: проверено DHT
Скачан: торрент - 108 раз, раздача полностью - 11 раз
Размер: 1,46 GB
Оценка:  - (Голосов: 0)
Поблагодарили: 0
Поделиться ссылкой на эту раздачу с друзьями:
В контактеFacebookОдноклассникиTwitterLivejournalМой МирLiveinternet
 

 
Показать сообщения:    


Вы не можете начинать темы
Вы не можете отвечать на сообщения
Вы не можете редактировать свои сообщения
Вы не можете удалять свои сообщения
Вы не можете голосовать в опросах
Вы не можете прикреплять файлы к сообщениям
Вы можете скачивать файлы