Loading...
Error

Скачать Затерянный Мир / The Lost World (Боб Кин) [1998, фантастика, приключения, DVDRip] [MVO]+[Оригинал]+[Sub] торрент без регистрации

 
Статистика раздачи
Размер:  1,46 GB   |    Скачан:  102 раза
Сидов:  2  [  0 KB/s  ]  
 
Автор Сообщение

Marsianka

[] 

Страна: Канада, США
Производство: Maple Pictures

Жанр: фантастика, приключения
Год выпуска: 1998
Продолжительность: 01:33:44

Перевод: Профессиональный (многоголосый, закадровый)
Оригинальная аудиодорожка: английский
Cубтитры: русский

Режиссер: Боб Кин / Bob Keen

В ролях:
Патрик Бергин, Джэйн Хейтмейер, Джулиан Кэйси, Дэвид Нермэн, Майкл Синельников, Джек Лангедийк, Расселл Юэнь, Джеймс Брэдфорд...

Описание:
1934 год. Лондон взбудоражен новейшей сенсацией — знаменитый ученый и искатель приключений Джордж Челленджер отправляется со своим заклятым соперником и конкурентом профессором Саммерли в Монголию на поиски неведомого мира, населенного доисторическими монстрами, чтобы однажды показать изумленному миру живого птеродактиля. В компании с очаровательной Амандой Уайт, отважным охотником Джоном Рокстоном и юным репортером Артуром Мелоуном они готовы совершить героический полет на воздушном шаре, чтобы подняться на недосягаемое горное плато, скрытое за пеленой облаков. Наконец, преодолев снега, поборов страх и сразившись с диким племенем неандертальцев, они стоят в шаге от заветной цели. Но бесстрашные искатели приключений еще не знают, что страна тайн и открытий станет для них коварной ловушкой, из которой не всем удастся выбраться живыми…

Исходник: DVD5 R5
Тип релиза: DVDRip
Контейнер: AVI

Видео: 688x512 (4:3), 25,000 fps, XviD ~ 1445 kbps avg, 0.164 bit/pixel
Аудио: 48 kHz, Dolby Digital AC3 5.1, 384 kbps MVO
Аудио: 48 kHz, Dolby Digital AC3 5.1, 384 kbps Английский
Субтитры: SoftSub (srt)
Раздача от:

Общее
Полное имя : Zateryannyy.mir.1998.DVDRip_[New-team]_by_AVP_Studio.avi
Формат : AVI
Формат/Информация : Audio Video Interleave
Размер файла : 1,46 Гбайт
Продолжительность : 1 ч. 33 м.
Общий поток : 2228 Кбит/сек
Программа кодирования : VirtualDubModRus 1.5.10.2 (build 2542/release)
Библиотека кодирования : VirtualDubMod build 2542/release

Видео
Идентификатор : 0
Формат : MPEG-4 Visual
Профиль формата : Advanced Simple@L5
Параметр BVOP формата : 1
Параметр QPel формата : Нет
Параметр GMC формата : Без точки перехода
Параметр матрицы формата : Выборочная
Идентификатор кодека : XVID
Идентификатор кодека/Подсказка : XviD
Продолжительность : 1 ч. 33 м.
Битрейт : 1445 Кбит/сек
Ширина : 688 пикселей
Высота : 512 пикселей
Соотношение сторон : 4:3
Частота кадров : 25,000 кадров/сек
Цветовое пространство : YUV
Субдискретизация насыщенности : 4:2:0
Битовая глубина : 8 бит
Тип развёртки : Прогрессивная
Метод сжатия : С потерями
Бит/(Пиксели*Кадры) : 0.164
Размер потока : 969 Мбайт (65%)
Библиотека кодирования : XviD 73

Аудио #1
Идентификатор : 1
Формат : AC-3
Формат/Информация : Audio Coding 3
Расширение режима : CM (complete main)
Параметр Endianness формата : Big
Идентификатор кодека : 2000
Продолжительность : 1 ч. 33 м.
Вид битрейта : Постоянный
Битрейт : 384 Кбит/сек
Каналы : 6 каналов
Расположение каналов : Front: L C R, Side: L R, LFE
Частота : 48,0 КГц
Битовая глубина : 16 бит
Метод сжатия : С потерями
Размер потока : 257 Мбайт (17%)
Выравнивание : Разделение по промежуткам
Продолжительность промежутка : 40 мс. (1,00 видеокадр)
Время предзагрузки промежутка : 500 мс.

Аудио #2
Идентификатор : 2
Формат : AC-3
Формат/Информация : Audio Coding 3
Расширение режима : CM (complete main)
Параметр Endianness формата : Big
Идентификатор кодека : 2000
Продолжительность : 1 ч. 33 м.
Вид битрейта : Постоянный
Битрейт : 384 Кбит/сек
Каналы : 6 каналов
Расположение каналов : Front: L C R, Side: L R, LFE
Частота : 48,0 КГц
Битовая глубина : 16 бит
Метод сжатия : С потерями
Размер потока : 257 Мбайт (17%)
Выравнивание : Разделение по промежуткам
Продолжительность промежутка : 40 мс. (1,00 видеокадр)
Время предзагрузки промежутка : 500 мс



Скачать Затерянный.Мир.The.Lost.World.(Боб.Кин).[1998.фантастика.приключения.DVDRip].[MVO]+[Оригинал]+[Sub].torrent без регистрации
Золото ЗОЛОТАЯ РАЗДАЧА! СКАЧАННОЕ НЕ ЗАСЧИТЫВАЕТСЯ! Золото
Дата: Зарегистрирован   [ Тип: внешний ] Как тут cкачать?
MAGNET ссылка
MAGNET ссылка


Скачать .torrent

16 KB

Статус: проверено DHT
Скачан: торрент - 102 раз, раздача полностью - 10 раз
Размер: 1,46 GB
Оценка:  - (Голосов: 0)
Поблагодарили: 1
Поделиться ссылкой на эту раздачу с друзьями:
В контактеFacebookОдноклассникиTwitterLivejournalМой МирLiveinternet
 

 
Показать сообщения:    


Вы не можете начинать темы
Вы не можете отвечать на сообщения
Вы не можете редактировать свои сообщения
Вы не можете удалять свои сообщения
Вы не можете голосовать в опросах
Вы не можете прикреплять файлы к сообщениям
Вы можете скачивать файлы