Loading...
Error

Скачать Папаши / Les compères (Франсис Вебер) [1983, комедия, криминал, HDTVRip] [Dub] торрент без регистрации

 
Статистика раздачи
Размер:  745 MB   |    Скачан:  102 раза
Сидов:  9  [  0 KB/s  ]  
 
Автор Сообщение

Marsianka

[] 

Страна: Франция
Производство: DD Productions, EFVE, Fideline Films
Жанр: комедия, криминал
Год выпуска: 1983
Продолжительность: 01:25:33

Перевод: Профессиональный (дублированный) Советский дубляж
Оригинальная аудиодорожка: нет
Cубтитры: нет

Режиссер: Франсис Вебер / Francis Veber

В ролях:
Пьер Ришар, Жерар Депардье, Стефан Бьерри, Анни Дюпре, Мишель Омон, Жан-Жак Шеффер, Филипп Хорсан, Ролан Бланш, Жак Франц, Морис Барье...

Роли дублировали:
Александр Белявский, Вадим Спиридонов, Александр Рыжков, Нонна Терентьева, Рудольф Панков...

Описание:
У Кристины Мартен была очень бурная молодость. Когда из дома сбегает её семнадцатилетний сын Тристан, на его поиски бросаются сразу два предполагаемых отца. Вернуть подростка в отчий дом пытаются учитель Франсуа Пиньон и журналист Жан Люка.
Но, как выяснилось, сам Тристан не готов к двойной порции отцовской любви. Он всячески пытается уйти от погони. Непокорного подростка всё же доставляют к Кристине, под конвоем сразу двух папаш. Но в этот момент выясняется, что настоящим отцом Тристана является Поль — ещё одно увлечение ветреной мадемуазель Мартен...

Исходник: HDTVRip 1080p
Тип релиза: HDTVRip
Контейнер: AVI

Видео: 704x416 (1,692:1), 25 fps, XviD ~ 1080 kbps avg, 0.147 bit/pixel
Аудио: 48 kHz, MP3 2.0, 128 kbps

Раздача от:

Общее
Полное имя : Papashi.1983.HDTVRip_[New-team]_by_AVP_Studio.avi
Формат : AVI
Формат/Информация : Audio Video Interleave
Размер файла : 745 Мбайт
Продолжительность : 1 ч. 25 м.
Общий поток : 1218 Кбит/сек
Программа кодирования : VirtualDubModRus 1.5.10.2 (build 2542/release)
Библиотека кодирования : VirtualDubMod build 2542/release

Видео
Идентификатор : 0
Формат : MPEG-4 Visual
Профиль формата : Advanced Simple@L5
Параметр BVOP формата : 1
Параметр QPel формата : Нет
Параметр GMC формата : Без точки перехода
Параметр матрицы формата : Выборочная
Идентификатор кодека : XVID
Идентификатор кодека/Подсказка : XviD
Продолжительность : 1 ч. 25 м.
Битрейт : 1080 Кбит/сек
Ширина : 704 пикселя
Высота : 416 пикселей
Соотношение сторон : 1,692
Частота кадров : 25,000 кадров/сек
Цветовое пространство : YUV
Субдискретизация насыщенности : 4:2:0
Битовая глубина : 8 бит
Тип развёртки : Прогрессивная
Метод сжатия : С потерями
Бит/(Пиксели*Кадры) : 0.147
Размер потока : 661 Мбайт (89%)
Библиотека кодирования : XviD 73

Аудио
Идентификатор : 1
Формат : MPEG Audio
Версия формата : Version 1
Профиль формата : Layer 3
Идентификатор кодека : 55
Идентификатор кодека/Подсказка : MP3
Продолжительность : 1 ч. 25 м.
Вид битрейта : Постоянный
Битрейт : 128 Кбит/сек
Каналы : 2 канала
Частота : 48,0 КГц
Метод сжатия : С потерями
Размер потока : 78,3 Мбайт (11%)
Выравнивание : Соединение по промежуткам
Продолжительность промежутка : 40 мс. (1,00 видеокадр)
Время предзагрузки промежутка : 504 мс.
Библиотека кодирования : LAME3.99r
Настройки программы : -m s -V 4 -q 2 -lowpass 17 -b 128



Скачать Папаши.Les.compères.(Франсис.Вебер).[1983.комедия.криминал.HDTVRip].[Dub].torrent без регистрации
Золото ЗОЛОТАЯ РАЗДАЧА! СКАЧАННОЕ НЕ ЗАСЧИТЫВАЕТСЯ! Золото
Дата: Зарегистрирован   [ Тип: внешний ] Как тут cкачать?
MAGNET ссылка
MAGNET ссылка


Скачать .torrent

15 KB

Статус: проверено DHT
Скачан: торрент - 102 раз, раздача полностью - 54 раз
Размер: 745 MB
Оценка:  5 (Голосов: 1)
Поблагодарили: 2
Поделиться ссылкой на эту раздачу с друзьями:
В контактеFacebookОдноклассникиTwitterLivejournalМой МирLiveinternet
 

 
Показать сообщения:    


Вы не можете начинать темы
Вы не можете отвечать на сообщения
Вы не можете редактировать свои сообщения
Вы не можете удалять свои сообщения
Вы не можете голосовать в опросах
Вы не можете прикреплять файлы к сообщениям
Вы можете скачивать файлы