Loading...
Error

Скачать Приговоренная / Смертельная директива / Supreme Sanction (Джон Терлески / John Terlesky) [1999, боевик, триллер, криминал, приключения, DVDRip] [AVO] (С.Визгунов) торрент без регистрации

 
Статистика раздачи
Размер:  1,36 GB   |    Скачан:  86 раз
Сидов:  1  [  0 KB/s  ]  
 
Автор Сообщение

leon030982

[] 

Приговоренная / Смертельная директива / Supreme Sanction


Год выпуска: 1999
Страна: США
Жанр: боевик, триллер, криминал, приключения
Продолжительность: 01:29:12
Перевод: Авторский (одноголосый, закадровый) [С.Визгунов]
Cубтитры: нет
Оригинальная аудиодорожка: нет

Режиссер: Джон Терлески / John Terlesky

В ролях: Майкл Мэдсен, Кристи Суонсон, Дэвид Дьюкс, Рон Перлман, Том ’Тайни’ Листер мл., Ал Сапиенца, Сюанн Споук, Дональд Фэйсон, Холлистон Коулмэн, Тео

Описание: Дженна, офицер элитного подразделения «Альфа», окончившая курс по подготовке наемных убийц, получает приказ уничтожить известного журналиста Джордана МакНамара.
Но в самую последнюю секунду Дженна не нажимает на курок, опасаясь убить находящуюся рядом с «объектом» девочку, и подписывает себе тем самым смертный приговор. Теперь молодая женщина — цель для уничтожения, и помощи ей ждать не от куда…

Сэмпл

Качество видео: DVDRip
Формат видео: AVI
Видео кодек: XviD
Аудио кодек: AC3
Видео: 688x480 (1.43:1), 25 fps, XviD build 47 ~1956 kbps avg, 0.24 bit/pixel
Аудио: 48 kHz, AC3 Dolby Digital, 2/0 (L,R) ch, ~224 kbps
Формат : AVI
Формат/Информация : Audio Video Interleave
Размер файла : 1,36 Гбайт
Продолжительность : 1 ч. 29 м.
Общий поток : 2190 Кбит/сек
Программа кодирования : VirtualDubMod 1.5.10.3 || (build 2550/release)
Библиотека кодирования : VirtualDubMod build 2550/release
Видео
Идентификатор : 0
Формат : MPEG-4 Visual
Профиль формата : Advanced Simple@L5
Параметр BVOP формата : 1
Параметр QPel формата : Нет
Параметр GMC формата : Без точки перехода
Параметр матрицы формата : Default (MPEG)
Идентификатор кодека : XVID
Идентификатор кодека/Подсказка : XviD
Продолжительность : 1 ч. 29 м.
Битрейт : 1957 Кбит/сек
Ширина : 688 пикселей
Высота : 480 пикселей
Соотношение сторон : 1,433
Частота кадров : 25,000 кадров/сек
Цветовое пространство : YUV
Субдискретизация насыщенности : 4:2:0
Битовая глубина : 8 бит
Тип развёртки : Прогрессивная
Метод сжатия : С потерями
Бит/(Пиксели*Кадры) : 0.237
Размер потока : 1,22 Гбайт (89%)
Библиотека кодирования : XviD 1.2.0.dev47 (UTC 2006-11-01)
Аудио
Идентификатор : 1
Формат : AC-3
Формат/Информация : Audio Coding 3
Расширение режима : CM (complete main)
Идентификатор кодека : 2000
Продолжительность : 1 ч. 29 м.
Вид битрейта : Постоянный
Битрейт : 224 Кбит/сек
Каналы : 2 канала
Расположение каналов : Front: L R
Частота : 48,0 КГц
Битовая глубина : 16 бит
Метод сжатия : С потерями
Размер потока : 143 Мбайт (10%)
Выравнивание : Разделение по промежуткам
Продолжительность промежутка : 40 мс. (1,00 видеокадр)
Время предзагрузки промежутка : 500 мс.



Скачать Приговоренная.Смертельная.директива.Supreme.Sanction.(Джон.Терлески.John.Terlesky).[1999.боевик.триллер.криминал.приключения.DVDRip].[AVO].(С.Визгунов).torrent без регистрации
Золото ЗОЛОТАЯ РАЗДАЧА! СКАЧАННОЕ НЕ ЗАСЧИТЫВАЕТСЯ! Золото
Дата: Зарегистрирован   [ Тип: внутренний ] Как тут cкачать?
MAGNET ссылка
MAGNET ссылка


Скачать .torrent

28 KB

Статус: проверено DHT
Скачан: торрент - 86 раз, раздача полностью - 18 раз
Размер: 1,36 GB
Оценка:  - (Голосов: 0)
Поблагодарили: 0
Поделиться ссылкой на эту раздачу с друзьями:
В контактеFacebookОдноклассникиTwitterLivejournalМой МирLiveinternet
 

 
Показать сообщения:    


Вы не можете начинать темы
Вы не можете отвечать на сообщения
Вы не можете редактировать свои сообщения
Вы не можете удалять свои сообщения
Вы не можете голосовать в опросах
Вы не можете прикреплять файлы к сообщениям
Вы можете скачивать файлы