Loading...
Error

Скачать Увлечение Стеллы / How Stella Got Her Groove Back (Кевин Родни Салливан) [1998, драма, мелодрама, DVDRip] [MVO] торрент без регистрации

 
Статистика раздачи
Размер:  1,46 GB   |    Скачан:  78 раз

Полного источника не было: 25 минут

 
Автор Сообщение

Marsianka

[] 

Страна: США
Жанр: драма, мелодрама
Год выпуска: 1998
Продолжительность: 01:59:23

Перевод: Профессиональный (многоголосый закадровый)
Оригинальная аудиодорожка: нет
Cубтитры: нет

Режиссер: Кевин Родни Салливан / Kevin Rodney Sullivan

В ролях: Анжела Бассетт / Angela Bassett /, Тэй Диггз / Taye Diggs /, Вупи Голдберг / Whoopi Goldberg /, Реджина Кинг / Regina King /, Сьюззанн Дуглас / Suzzanne Douglas...

Описание:
Стелла Пэйн, преуспевающая бизнес-леди, давно забыла, когда в последний раз была в отпуске. Ее лучшая подруга Делайла решает исправить такое ненормальное положение дел. И поддавшись спонтанному порыву, они отправляются на Ямайку к прекрасному голубому морю и белому песку.
Романтической настроение витает здесь в воздухе. И вскоре Стелла знакомится с молодым чернокожим красавцем. Парень — предел всех мечтаний. И Стелла с удивлением понимает, что ее сердце открыто для любви. Единственное, что смущает, — 20-летняя разница в возрасте...


Исходник: DVD9 R5
Тип релиза: DVDRip
Контейнер: AVI

Видео: 720x384 (1,875:1), 25 fps, XviD ~ 1290 kbps avg, 0.187 bit/pixel
Аудио: 48 kHz, Dolby AC3 5.1, 448 kbps

Общее
Полное имя : Uvlechenija.Stelly.1998.DVDRip_[Youtracker]_by_AVP Studio.avi
Формат : AVI
Формат/Информация : Audio Video Interleave
Размер файла : 1,46 Гбайт
Продолжительность : 1 ч. 59 м.
Общий поток : 1747 Кбит/сек
Программа кодирования : VirtualDubMod 1.5.10.3 | www.virtualdub-fr.org || (build 2550/release)
Библиотека кодирования : VirtualDubMod build 2550/release

Видео
Идентификатор : 0
Формат : MPEG-4 Visual
Профиль формата : Advanced Simple@L5
Параметр BVOP формата : 1
Параметр QPel формата : Нет
Параметр GMC формата : Без точки перехода
Параметр матрицы формата : Выборочная
Идентификатор кодека : XVID
Идентификатор кодека/Подсказка : XviD
Продолжительность : 1 ч. 59 м.
Битрейт : 1290 Кбит/сек
Ширина : 720 пикселей
Высота : 384 пикселя
Соотношение сторон : 1,875
Частота кадров : 25,000 кадров/сек
Цветовое пространство : YUV
Субдискретизация насыщенности : 4:2:0
Битовая глубина : 8 бит
Тип развёртки : Прогрессивная
Метод сжатия : С потерями
Бит/(Пиксели*Кадры) : 0.187
Размер потока : 1,08 Гбайт (74%)
Библиотека кодирования : XviD 65

Аудио
Идентификатор : 1
Формат : AC-3
Формат/Информация : Audio Coding 3
Расширение режима : CM (complete main)
Идентификатор кодека : 2000
Продолжительность : 1 ч. 59 м.
Вид битрейта : Постоянный
Битрейт : 448 Кбит/сек
Каналы : 6 каналов
Расположение каналов : Front: L C R, Side: L R, LFE
Частота : 48,0 КГц
Битовая глубина : 16 бит
Метод сжатия : С потерями
Размер потока : 383 Мбайт (26%)
Выравнивание : Разделение по промежуткам
Продолжительность промежутка : 40 мс. (1,00 видеокадр)
Время предзагрузки промежутка : 500 мс



Скачать Увлечение.Стеллы.How.Stella.Got.Her.Groove.Back.(Кевин.Родни.Салливан).[1998.драма.мелодрама.DVDRip].[MVO].torrent без регистрации
Золото ЗОЛОТАЯ РАЗДАЧА! СКАЧАННОЕ НЕ ЗАСЧИТЫВАЕТСЯ! Золото
Дата: Зарегистрирован   [ Тип: внутренний ] Как тут cкачать?
MAGNET ссылка
MAGNET ссылка


Скачать .torrent

16 KB

Статус: проверено DHT
Скачан: торрент - 78 раз, раздача полностью - 0 раз
Размер: 1,46 GB
Оценка:  - (Голосов: 0)
Поблагодарили: 0
Поделиться ссылкой на эту раздачу с друзьями:
В контактеFacebookОдноклассникиTwitterLivejournalМой МирLiveinternet
 

 
Показать сообщения:    


Вы не можете начинать темы
Вы не можете отвечать на сообщения
Вы не можете редактировать свои сообщения
Вы не можете удалять свои сообщения
Вы не можете голосовать в опросах
Вы не можете прикреплять файлы к сообщениям
Вы можете скачивать файлы