Loading...
Error

Скачать Бумеранг / Boomerang (Реджинальд Хадлин) [1992, комедия, мелодрама, HDTVRip] [DVO] торрент без регистрации

 
Статистика раздачи
Размер:  1,46 GB   |    Скачан:  80 раз
Сидов:  1  [  0 KB/s  ]  
 
Автор Сообщение

Marsianka

[] 

Бумеранг / Boomerang (1992)
Название: Бумеранг
Оригинальное название: Boomerang
Производство: США / Paramount Pictures, Imagine Films Entertainment, Eddie Murphy Productions
Жанр: комедия, мелодрама
Продолжительность: 01:56:26
Перевод: Профессиональный (двухголосый, закадровый)

Режиссер: Реджинальд Хадлин
Актеры: Эдди Мерфи, Робин Гивенс, Холли Берри, Дэвид Алан Грайр, Мартин Лоуренс, Грейс Джонс, Джеффри Холдер, Эрта Китт, Крис Рок, Тиша Кэмпбелл

Описание:
Маркус работает в рекламном отделе крупной фирмы. У него милая жена, но помимо жены есть еще Жаклин, есть Анжела, есть... Проще говоря, Маркус — лихой бабник, причем с той особенностью, что женщины к нему буквально липнут и никак не хотят оставить в покое. Есть у него и парочка закадычных дружков, тоже чернокожих, с которыми он делится всеми пикантными подробностями своих романов. Вернее, почти всеми, потому что одну из дам он отбил именно у друга.



Качество: HDTVRip
Видео: MPEG4, XviD, 720x400 (16:9), 23.976 fps, 1 589 Kbps (0.230 bit/pixel)
Аудио: AC-3, 48.0 KHz, 2 ch, 192 Kbps, CBR
Релиз от: FAGOT100
Формат : AVI
Формат/Информация : Audio Video Interleave
Размер файла : 1,46 Гбайт
Продолжительность : 1 ч. 56 м.
Общий поток : 1791 Кбит/сек
Программа кодирования : VirtualDubMod 1.5.10.3 | www.virtualdub-fr.org || (build 2550/release)
Библиотека кодирования : VirtualDubMod build 2550/release

Видео
Идентификатор : 0
Формат : MPEG-4 Visual
Профиль формата : Advanced Simple@L5
Параметр BVOP формата : 2
Параметр QPel формата : Нет
Параметр GMC формата : Без точки перехода
Параметр матрицы формата : Выборочная
Идентификатор кодека : XVID
Идентификатор кодека/Подсказка : XviD
Продолжительность : 1 ч. 56 м.
Битрейт : 1589 Кбит/сек
Ширина : 720 пикселей
Высота : 400 пикселей
Соотношение сторон : 16:9
Частота кадров : 23,976 кадра/сек
Цветовое пространство : YUV
Субдискретизация насыщенности : 4:2:0
Битовая глубина : 8 бит
Тип развёртки : Прогрессивная
Метод сжатия : С потерями
Бит/(Пиксели*Кадры) : 0.230
Размер потока : 1,29 Гбайт (89%)
Библиотека кодирования : XviD 73

Аудио
Идентификатор : 1
Формат : AC-3
Формат/Информация : Audio Coding 3
Расширение режима : CM (complete main)
Параметр Endianness формата : Big
Идентификатор кодека : 2000
Продолжительность : 1 ч. 56 м.
Вид битрейта : Постоянный
Битрейт : 192 Кбит/сек
Каналы : 2 канала
Расположение каналов : Front: L R
Частота : 48,0 КГц
Битовая глубина : 16 бит
Метод сжатия : С потерями
Размер потока : 160 Мбайт (11%)
Выравнивание : Разделение по промежуткам
Продолжительность промежутка : 42 мс. (1,00 видеокадр)
Время предзагрузки промежутка : 500 мс.



Скачать Бумеранг.Boomerang.(Реджинальд.Хадлин).[1992.комедия.мелодрама.HDTVRip].[DVO].torrent без регистрации
Золото ЗОЛОТАЯ РАЗДАЧА! СКАЧАННОЕ НЕ ЗАСЧИТЫВАЕТСЯ! Золото
Дата: Зарегистрирован   [ Тип: внутренний ] Как тут cкачать?
MAGNET ссылка
MAGNET ссылка


Скачать .torrent

15 KB

Статус: проверено DHT
Скачан: торрент - 80 раз, раздача полностью - 4 раз
Размер: 1,46 GB
Оценка:  - (Голосов: 0)
Поблагодарили: 0
Поделиться ссылкой на эту раздачу с друзьями:
В контактеFacebookОдноклассникиTwitterLivejournalМой МирLiveinternet
 

 
Показать сообщения:    


Вы не можете начинать темы
Вы не можете отвечать на сообщения
Вы не можете редактировать свои сообщения
Вы не можете удалять свои сообщения
Вы не можете голосовать в опросах
Вы не можете прикреплять файлы к сообщениям
Вы можете скачивать файлы