Loading...
Error

Скачать Затерянный лагерь / Camp Nowhere (Джонатан Принц) [1994, комедия, приключения, BDRip-AVC] [MVO] торрент без регистрации

 
Статистика раздачи
Размер:  1,37 GB   |    Скачан:  68 раз
Сидов:  1  [  0 KB/s  ]  
 
Автор Сообщение

Marsianka

[] 

Информация о фильме
Год выпуска: 1994
Жанр: комедия, приключения
Режиссер: Джонатан Принц
В ролях: Кристофер Ллойд, Джонатан Джексон, Уэнди Маккена, М. Эммет Уолш, Джон Путч, Питер Сколари, Роми Уиндсор, Джошуа Гибран Мэйвизер, Эндрю Кигэн, Девин Отвэй

Описание:
Летний лагерь — отдых только с первого взгляда. Сами дети имеют на этот счет особое мнение, поэтому, когда Моррис Химмель узнает, что ему вместе с друзьями предстоит провести лето на таком «отдыхе», он решает действовать. Сообща компания решается на веселую авантюру: они организуют свой собственный лагерь, райский уголок без родителей с морем развлечений. Им удается убедить доверчивых мам и пап в существовании мифического уголка детского отдыха и даже потратить их деньги на это. Однако впереди друзей ждет маленькая проблема, грозящая обернуться большими неприятностями: грядет родительский день, когда обман может легко раскрыться.



Выпущено: США
Перевод: Профессиональный [многоголосый, Видеосервис]
Субтитры: Нет
Продолжительность: 01:35:47

Файл
Качество: BDRip-AVC
Контейнер: MKV
Видео: 1024x576, MPEG-4 AVC Video, 23.976 fps, ~1850 kbps
Аудио: 48 kHz, АС3, 2 ch, 192 kbps
General
Unique ID : 235846646633715611740558066581126088755 (0xB16E6972824E57984B42334F50F98833)
Complete name : D:Затерянный лагерь(1994).BDRIP-AVC.[-=DoMiNo=-].mkv
Format : Matroska
Format version : Version 4 / Version 2
File size : 1.37 GiB
Duration : 1h 35mn
Overall bit rate : 2 049 Kbps
Movie name : Затерянный лагерь
Writing application : XviD4PSP 7.0.156
Writing library : Lavf56.25.101
ORIGINAL_TITLE : Camp Nowhere
DATE : 1994
GENRE : комедия, приключения
ENCODING_INFO : BluRay > MKV / H264 > X264 VBR-2P 1850kbps Custom / AC3 > COPY
DEION : Летний лагерь — отдых только с первого взгляда. Сами дети имеют на этот счет особое мнение, поэтому, когда Моррис Химмель узнает, что ему вместе с друзьями предстоит провести лето на таком «отдыхе», он решает действовать.Сообща компания решается на веселую авантюру: они организуют свой собственный лагерь, райский уголок без родителей с морем развлечений. Им удается убедить доверчивых мам и пап в существовании мифического уголка детского отдыха и даже потратить их деньги на это. Однако впереди друзей ждет маленькая проблема, грозящая обернуться большими неприятностями: грядет родительский день, когда обман может легко раскрыться.
ITUNEXTC : mpaa|PG|200|
ACTORS : Кристофер Ллойд, Джонатан Джексон, Уэнди Маккена, М. Эммет Уолш, Джон Путч, Питер Сколари, Роми Уиндсор, Джошуа Гибран Мэйвизер, Эндрю Кигэн, Девин Отвэй, показать всех
DIRECTOR : Джонатан Принц
PRODUCER : Майкл Пейсер, Джанет Грэхэм, Эндрю Куртцман
WRITER : Эндрю Куртцман, Элиот Уолд
COUNTRY : США
RATING : 6.869
IMDB_RATING : 5.90
Language : und
FILENAME : cover.png
Attachements : cover.png

Video
ID : 1
Format : AVC
Format/Info : Advanced Video Codec
Format profile : High@L4.1
Format settings, CABAC : Yes
Format settings, ReFrames : 10 frames
Codec ID : V_MPEG4/ISO/AVC
Duration : 1h 35mn
Bit rate : 1 850 Kbps
Width : 1 024 pixels
Height : 576 pixels
Display aspect ratio : 16:9
Frame rate mode : Constant
Frame rate : 23.976 fps
Color space : YUV
Chroma subsampling : 4:2:0
Bit depth : 8 bits
Scan type : Progressive
Bits/(Pixel*Frame) : 0.131
Stream size : 1.22 GiB (89%)
Writing library : x264 core 146 r2538M 121396c
Encoding settings : cabac=1 / ref=10 / deblock=1:-1:-1 / analyse=0x3:0x133 / me=umh / subme=9 / psy=1 / psy_rd=1,00:0,20 / mixed_ref=1 / me_range=32 / chroma_me=1 / trellis=1 / 8x8dct=1 / cqm=0 / deadzone=21,11 / fast_pskip=0 / chroma_qp_offset=-3 / threads=6 / lookahead_threads=1 / sliced_threads=0 / nr=0 / decimate=1 / interlaced=0 / bluray_compat=0 / constrained_intra=0 / bframes=9 / b_pyramid=2 / b_adapt=2 / b_bias=0 / direct=3 / weightb=1 / open_gop=0 / weightp=2 / keyint=230 / keyint_min=23 / scenecut=40 / intra_refresh=0 / rc=2pass / mbtree=0 / bitrate=1850 / ratetol=1,0 / qcomp=0,60 / qpmin=0 / qpmax=69 / qpstep=4 / cplxblur=20,0 / qblur=0,5 / ip_ratio=1,40 / pb_ratio=1,30 / aq=1:1,00
Default : Yes
Forced : No
Color range : Limited
Color primaries : BT.709
Transfer characteristics : BT.709
Matrix coefficients : BT.709

Audio
ID : 2
Format : AC-3
Format/Info : Audio Coding 3
Mode extension : CM (complete main)
Format settings, Endianness : Big
Codec ID : A_AC3
Duration : 1h 35mn
Bit rate mode : Constant
Bit rate : 192 Kbps
Channel(s) : 2 channels
Channel positions : Front: L R
Sampling rate : 48.0 KHz
Bit depth : 32 bits
Compression mode : Lossy
Stream size : 132 MiB (9%)
Language : Russian
Default : Yes
Forced : No

Menu
00:00:00.000 : :Chapter 1
00:04:18.882 : :Chapter 2
00:13:00.529 : :Chapter 3
00:19:45.559 : :Chapter 4
00:28:40.552 : :Chapter 5
00:37:45.596 : :Chapter 6
00:47:57.708 : :Chapter 7
00:56:57.997 : :Chapter 8
01:07:10.192 : :Chapter 9
01:14:38.849 : :Chapter 10
01:21:29.426 : :Chapter 11
01:32:38.511 : :Chapter 12
01:35:47.700 : :Chapter 13



Скачать Затерянный.лагерь.Camp.Nowhere.(Джонатан.Принц).[1994.комедия.приключения.BDRip-AVC].[MVO].torrent без регистрации
Золото ЗОЛОТАЯ РАЗДАЧА! СКАЧАННОЕ НЕ ЗАСЧИТЫВАЕТСЯ! Золото
Дата: Зарегистрирован   [ Тип: внутренний ] Как тут cкачать?
MAGNET ссылка
MAGNET ссылка


Скачать .torrent

15 KB

Статус: проверено DHT
Скачан: торрент - 68 раз, раздача полностью - 3 раз
Размер: 1,37 GB
Оценка:  - (Голосов: 0)
Поблагодарили: 1
Поделиться ссылкой на эту раздачу с друзьями:
В контактеFacebookОдноклассникиTwitterLivejournalМой МирLiveinternet
 

 
Показать сообщения:    


Вы не можете начинать темы
Вы не можете отвечать на сообщения
Вы не можете редактировать свои сообщения
Вы не можете удалять свои сообщения
Вы не можете голосовать в опросах
Вы не можете прикреплять файлы к сообщениям
Вы можете скачивать файлы