Loading...
Error

Скачать Аллан Куотермейн и потерянный город золота / Allan Quatermain and the Lost City of Gold (Гэри Нельсон) [1986, боевик, комедия, приключения, HDRip] [MVO] торрент без регистрации

 
Статистика раздачи
Размер:  1,37 GB   |    Скачан:  100 раз
Сидов:  1  [  0 KB/s  ]  
 
Автор Сообщение

Marsianka

[] 

Информация о фильме
Название: Аллан Куотермейн и потерянный город золота
Оригинальное название: Allan Quatermain and the Lost City of Gold
Год выхода: 1986
Жанр: боевик, комедия, приключения
Режиссер: Гэри Нельсон
В ролях: Ричард Чемберлен, Шэрон Стоун, Джеймс Эрл Джонс, Генри Сильва, Роберт Доннер, Догми Ларби, Эйлин Марсон, Кассандра Петерсон, Мартин Раббетт, Рори Килалеа

О фильме:
Продолжение фильма «Копи царя Соломона». Герой возвращается в Африку в поисках своего брата, идущего по следам затерянного белого племени.



Страна: США
Продолжительность: 01:39:36
Перевод: Профессиональный (многоголосый закадровый) СТС

Файл
Кодек: XviD
Качество: HDRip
Видео: 720x304, 23,976 fps, 1737 kbps
Звук: 48 KHz, AC3, 2 ch, ~224 Kbps
Общее
Полное имя : Allan.Quatermain.and.the.Lost.City.of.Gold.1986.HDRip.avi
Формат : AVI
Формат/Информация : Audio Video Interleave
Размер файла : 1,37 Гбайт
Продолжительность : 1 ч. 39 м.
Общий поток : 1970 Кбит/сек
Программа кодирования : VirtualDubMod 1.5.10.3 | www.virtualdub-fr.org || (build 2550/release)
Библиотека кодирования : VirtualDubMod build 2550/release

Видео
Идентификатор : 0
Формат : MPEG-4 Visual
Профиль формата : Advanced Simple@L5
Параметр BVOP формата : 1
Параметр QPel формата : Нет
Параметр GMC формата : Без точки перехода
Параметр матрицы формата : Выборочная
Идентификатор кодека : XVID
Идентификатор кодека/Подсказка : XviD
Продолжительность : 1 ч. 39 м.
Битрейт : 1737 Кбит/сек
Ширина : 720 пикс.
Высота : 304 пикс.
Соотношение сторон : 2,35:1
Частота кадров : 23,976 кадр/сек
Цветовое пространство : YUV
Подвыборка цветности : 4:2:0
Битовая глубина : 8 бит
Тип развёртки : Прогрессивная
Метод сжатия : С потерями
Бит/(Пиксели*Кадры) : 0.331
Размер потока : 1,21 Гбайт (88%)
Библиотека кодирования : XviD 73

Аудио
Идентификатор : 1
Формат : AC-3
Формат/Информация : Audio Coding 3
Расширение режима : CM (complete main)
Идентификатор кодека : 2000
Продолжительность : 1 ч. 39 м.
Вид битрейта : Постоянный
Битрейт : 224 Кбит/сек
Канал(ы) : 2 канала(ов)
Расположение каналов : Front: L R
Частота : 48,0 КГц
Битовая глубина : 16 бит
Метод сжатия : С потерями
Размер потока : 160 Мбайт (11%)
Выравнивание : Разделение по промежуткам
Продолжительность промежутка : 42 мс. (1,00 видеокадр)
Время предзагрузки промежутка : 500 ms
Релиз от: Leon-masl



Скачать Аллан.Куотермейн.и.потерянный.город.золота.Allan.Quatermain.and.the.Lost.City.of.Gold.(Гэри.Нельсон).[1986.боевик.комедия.приключения.HDRip].[MVO].torrent без регистрации
Золото ЗОЛОТАЯ РАЗДАЧА! СКАЧАННОЕ НЕ ЗАСЧИТЫВАЕТСЯ! Золото
Дата: Зарегистрирован   [ Тип: внутренний ] Как тут cкачать?
MAGNET ссылка
MAGNET ссылка


Скачать .torrent

15 KB

Статус: проверено DHT
Скачан: торрент - 100 раз, раздача полностью - 134 раз
Размер: 1,37 GB
Оценка:  - (Голосов: 0)
Поблагодарили: 3
Поделиться ссылкой на эту раздачу с друзьями:
В контактеFacebookОдноклассникиTwitterLivejournalМой МирLiveinternet
 

 
Показать сообщения:    


Вы не можете начинать темы
Вы не можете отвечать на сообщения
Вы не можете редактировать свои сообщения
Вы не можете удалять свои сообщения
Вы не можете голосовать в опросах
Вы не можете прикреплять файлы к сообщениям
Вы можете скачивать файлы