Loading...
Error

Скачать Черный скакун / The Black Stallion (Кэррол Бэллард / Carroll Ballard) [1979, приключения, семейный, спорт, BDRip] [DVO] (НТВ+) торрент без регистрации

 
Статистика раздачи
Размер:  1,45 GB   |    Скачан:  85 раз
Сидов:  1  [  0 KB/s  ]  
 
Автор Сообщение

leon030982

[] 

Черный скакун / The Black Stallion



Год выпуска: 1979
Страна: США
Жанр: приключения, семейный, спорт
Продолжительность: 01:57:22
Перевод: Профессиональный (двухголосый, закадровый) НТВ+ (по переводу Юрия Сербина)

Режиссер: Кэррол Бэллард / Carroll Ballard
В ролях: Келли Рено, Микки Руни, Тери Гарр, Хойт Экстон, Догми Ларби, Эд МакНамара, Майкл Хиггинс, Кларенс Мьюз, Леопольдо Триесте



Отправившись в морское путешествие со своим отцом, Алек и не подозревал, что судьба приготовила ему совсем не детское испытание. Корабль, на котором они путешествовали, помимо пассажиров перевозил великолепного, черного, как южная ночь, арабского скакуна. Внезапно корабль терпит крушение, выжить после которого удается только Алеку и жеребцу. Они попадают на необитаемый остров, где, испытав на себе все прелести жизни вдали от цивилизации, они становятся неразлучными друзьями. Когда же Алека находит поисковая команда, он забирает своего друга домой, где они начинают готовиться к участию в самых престижных скачках против лучших скакунов планеты.

Качество: BDRip (исходник - 1080p The.Black.Stallion.1979.BDRemux , спасибо FREEDONOR)
Формат: AVI
Видео кодек: XviD
Аудио кодек: AC3
Видео: XviD, 720x384 (1.88:1), 23.976 fps, 1570 kbps avg
Аудио: AC3 Dolby Digital, 48 kHz, 192 kbps, 2/0 (L,R) ch

Код:

Общее
Полное имя                               : F:\RT\Chernyy.Skakun.1979.XviD.BDRip.avi
Формат                                   : AVI
Формат/Информация                        : Audio Video Interleave
Размер файла                             : 1,45 Гбайт
Продолжительность                        : 1 ч. 57 м.
Общий поток                              : 1772 Кбит/сек
Название фильма                          : Chernyy.Skakun.1979.XviD.BDRip
Режиссёр                                 : ripped by Inch
Жанр                                     : Adventure/Sport/Family
Программа кодирования                    : VirtualDubMod 1.5.10.3 | www.virtualdub-fr.org || (build 2550/release)
Формат оригинала/Имя                     : The Black Stallion / 1979
Правообладатель                          : rutracker.org
Примечание                               : RusDVO (НТВ+)
Видео
Идентификатор                            : 0
Формат                                   : MPEG-4 Visual
Профиль формата                          : Advanced Simple@L5
Параметр BVOP формата                    : 2
Параметр QPel формата                    : Нет
Параметр GMC формата                     : Без точки перехода
Параметр матрицы формата                 : Выборочная
Идентификатор кодека                     : XVID
Идентификатор кодека/Подсказка           : XviD
Продолжительность                        : 1 ч. 57 м.
Битрейт                                  : 1571 Кбит/сек
Ширина                                   : 720 пикселей
Высота                                   : 384 пикселя
Соотношение сторон                       : 1,85:1
Частота кадров                           : 23,976 кадра/сек
Цветовое пространство                    : YUV
Субдискретизация насыщенности            : 4:2:0
Битовая глубина                          : 8 бит
Тип развёртки                            : Прогрессивная
Метод сжатия                             : С потерями
Бит/(Пиксели*Кадры)                      : 0.237
Размер потока                            : 1,29 Гбайт (89%)
Библиотека кодирования                   : XviD 73
Аудио
Идентификатор                            : 1
Формат                                   : AC-3
Формат/Информация                        : Audio Coding 3
Расширение режима                        : CM (complete main)
Параметр Endianness формата              : Big
Идентификатор кодека                     : 2000
Продолжительность                        : 1 ч. 57 м.
Вид битрейта                             : Постоянный
Битрейт                                  : 192 Кбит/сек
Каналы                                   : 2 канала
Расположение каналов                     : Front: L R
Частота                                  : 48,0 КГц
Битовая глубина                          : 16 бит
Метод сжатия                             : С потерями
Размер потока                            : 161 Мбайт (11%)
Выравнивание                             : Разделение по промежуткам
Продолжительность промежутка             : 42  мс. (1,00 видеокадр)
Время предзагрузки промежутка            : 500  мс.
Спасибо jurasiom за предоставление дорожки НТВ+ и анвад за ее cинхронизацию и удаление шума для использовании в указанном исходнике



Скачать Черный.скакун.The.Black.Stallion.(Кэррол.Бэллард.Carroll.Ballard).[1979.приключения.семейный.спорт.BDRip].[DVO].(НТВ+).torrent без регистрации
Золото ЗОЛОТАЯ РАЗДАЧА! СКАЧАННОЕ НЕ ЗАСЧИТЫВАЕТСЯ! Золото
Дата: Зарегистрирован   [ Тип: внутренний ] Как тут cкачать?
MAGNET ссылка
MAGNET ссылка


Скачать .torrent

15 KB

Статус: проверено DHT
Скачан: торрент - 85 раз, раздача полностью - 0 раз
Размер: 1,45 GB
Оценка:  5 (Голосов: 1)
Поблагодарили: 0
Поделиться ссылкой на эту раздачу с друзьями:
В контактеFacebookОдноклассникиTwitterLivejournalМой МирLiveinternet
 

 
Показать сообщения:    


Вы не можете начинать темы
Вы не можете отвечать на сообщения
Вы не можете редактировать свои сообщения
Вы не можете удалять свои сообщения
Вы не можете голосовать в опросах
Вы не можете прикреплять файлы к сообщениям
Вы можете скачивать файлы