Loading...
Error

Скачать Большой белый обман / The Great White Hype (Реджинальд Хадлин) [1996, комедия, HDTVRip] [MVO]x2 торрент без регистрации

 
Статистика раздачи
Размер:  1,44 GB   |    Скачан:  79 раз
Сидов:  1  [  0 KB/s  ]  
 
Автор Сообщение

Marsianka

[] 

Информация о фильме
Название: Большой белый обман
Оригинальное название: The Great White Hype
Год выхода: 1996
Жанр: комедия
Режиссер: Реджинальд Хадлин / Reginald Hudlin
В ролях: Сэмюэл Л. Джексон, Джефф Голдблюм, Питер Берг, Корбин Бернсен, Джон Ловиц, Чич Марин, Джон Рис-Дэвис, Салли Ричардсон, Джейми Фокс, Роки Кэрролл, Альберт Холл, Сьюзэн Гибни, Майкл Джейс, Дуан Дэвис, Ламонт Джонсон, Дэймон Уайанс, Сэм Уиппл, Лиделл М. Чешир, Стью Нэхен, Ферди Пачеко, Аль Родриго, Фил Букман, Рени Гриффин, Берт Рэндольф Шуга, Уолтер Эддисон, Джонатан П. Хикс, Крэйг Моддерно, Тим Саки, Майкл Фэйрмэн, Брэд Блэйсделл, Джеймс Харди, Недра Волц, Рик Скарри, Элизабет ЛаРоу, Элисон Крофт, Кристал Л. Хаус, Ричард Стил, Энтони Джонсон, Брайан Сетцер, Метод Мэн, Ирв Доттен, Дизер Ди, Рено

О фильме:
Бокс - это всегда больше, чем просто спорт, чаще это бизнес и тотализатор. И Фред Салтан – менеджер чемпиона среди тяжеловесов - не новичок в этой игре. По его мнению все средства хороши, чтобы озолотиться. А значит, его подопечному - чемпиону Джеймсу Роперу недостаточно заполучить достойного соперника, ему необходим скандал. Фреду нужен Тэри Конклин - "белый" боксер, некогда одержавший громкую победу над Ропером. Правда, он давно отошел от большого спорта. Что ж, тем ярче будет победа. Но в этот раз безупречное чутье Салтана дало осечку: все с самого начала пошло не так...



Страна: США
Продолжительность: 01:26:54
Перевод: Профессиональный (многоголосый закадровый) 1 канал, Профессиональный (многоголосый закадровый) Премьер Фильм

Файл
Кодек: XviD
Качество: HDTVRip
Видео: 704x400, 25,000 fps, 2036 kbps
Аудио 1: AC-3, 48.0 KHz, 2 ch, 192 Kbps.....1 канал
Аудио 2: AC-3, 48.0 KHz, 2 ch, 192 Kbps.....Премьер Фильм
Общее
Полное имя : Bolshoy.Beliy.Obman.1996.HDTVRip.avi
Формат : AVI
Формат/Информация : Audio Video Interleave
Размер файла : 1,44 Гбайт
Продолжительность : 1 ч. 24 м.
Общий поток : 2434 Кбит/сек
Программа кодирования : VirtualDubMod 1.5.10.2 (build 2542/release)
Библиотека кодирования : VirtualDubMod build 2542/release

Видео
Идентификатор : 0
Формат : MPEG-4 Visual
Профиль формата : Advanced Simple@L5
Параметр BVOP формата : 1
Параметр QPel формата : Нет
Параметр GMC формата : Без точки перехода
Параметр матрицы формата : Выборочная
Идентификатор кодека : XVID
Идентификатор кодека/Подсказка : XviD
Продолжительность : 1 ч. 24 м.
Битрейт : 2036 Кбит/сек
Ширина : 704 пикс.
Высота : 400 пикс.
Соотношение сторон : 16:9
Частота кадров : 25,000 кадр/сек
Цветовое пространство : YUV
Подвыборка цветности : 4:2:0
Битовая глубина : 8 бит
Тип развёртки : Прогрессивная
Метод сжатия : С потерями
Бит/(Пиксели*Кадры) : 0.289
Размер потока : 1,20 Гбайт (84%)
Библиотека кодирования : XviD 73

Аудио #1
Идентификатор : 1
Формат : AC-3
Формат/Информация : Audio Coding 3
Расширение режима : CM (complete main)
Идентификатор кодека : 2000
Продолжительность : 1 ч. 24 м.
Вид битрейта : Постоянный
Битрейт : 192 Кбит/сек
Канал(ы) : 2 канала(ов)
Расположение каналов : Front: L R
Частота : 48,0 КГц
Битовая глубина : 16 бит
Метод сжатия : С потерями
Размер потока : 116 Мбайт (8%)
Выравнивание : Разделение по промежуткам
Продолжительность промежутка : 40 мс. (1,00 видеокадр)
Время предзагрузки промежутка : 500 ms

Аудио #2
Идентификатор : 2
Формат : AC-3
Формат/Информация : Audio Coding 3
Расширение режима : CM (complete main)
Идентификатор кодека : 2000
Продолжительность : 1 ч. 24 м.
Вид битрейта : Постоянный
Битрейт : 192 Кбит/сек
Канал(ы) : 2 канала(ов)
Расположение каналов : Front: L R
Частота : 48,0 КГц
Битовая глубина : 16 бит
Метод сжатия : С потерями
Размер потока : 116 Мбайт (8%)
Выравнивание : Разделение по промежуткам
Продолжительность промежутка : 40 мс. (1,00 видеокадр)
Время предзагрузки промежутка : 500 ms
Релиз от: Leon-masl



Скачать Большой.белый.обман.The.Great.White.Hype.(Реджинальд.Хадлин).[1996.комедия.HDTVRip].[MVO]x2.torrent без регистрации
Золото ЗОЛОТАЯ РАЗДАЧА! СКАЧАННОЕ НЕ ЗАСЧИТЫВАЕТСЯ! Золото
Дата: Зарегистрирован   [ Тип: внутренний ] Как тут cкачать?
MAGNET ссылка
MAGNET ссылка


Скачать .torrent

15 KB

Статус: проверено DHT
Скачан: торрент - 79 раз, раздача полностью - 4 раз
Размер: 1,44 GB
Оценка:  - (Голосов: 0)
Поблагодарили: 0
Поделиться ссылкой на эту раздачу с друзьями:
В контактеFacebookОдноклассникиTwitterLivejournalМой МирLiveinternet
 

 
Показать сообщения:    


Вы не можете начинать темы
Вы не можете отвечать на сообщения
Вы не можете редактировать свои сообщения
Вы не можете удалять свои сообщения
Вы не можете голосовать в опросах
Вы не можете прикреплять файлы к сообщениям
Вы можете скачивать файлы