Loading...
Error

Скачать На зов скорби / Les Revenants (Сезон 01) (Фабрис Гобер, Фридерик Мерму) [2012, драма, триллер, BDRip] [720p] [MVO (Agatha Studdio)]+[Fre] торрент без регистрации

 
Статистика раздачи
Размер:  24,35 GB   |    Скачан:  126 раз
Сидов:  1  [  0 KB/s  ]  
 
Автор Сообщение

МихаНЕзатор

[] 


На зов скорби / Les Revenants
1 сезон


Год выпуска: 2012
Страна: Франция
Жанр: драма, триллер
Продолжительность: 8 х ~59 мин
Перевод: профессиональный многоголосый закадровый (Agatha Studdio)
Режиссёры: Фабрис Гобер, Фридерик Мерму

В ролях: Фредерик Пьеро, Самир Гесми, Гийом Гуи, Жан-Франсуа Сивадье, Аликс Пуасон, Дженна Тиам, Анн Косиньи, Клотильда Эсме, Селин Саллетт, Грегори Гадебуа, Пьер Перрье, Яра Пиларц, Сванн Намботин, Ана Жирардо...

Описание: В небольшой альпийской деревушке, растерянные люди пытаются вернуться домой. Они ещё не знают, что мертвы уже несколько лет. Вернувшиеся полны решимости вернуть себе место в мире живых. Но, похоже, воскресли не только мирные жители. Их возврат совпадает с серией жестоких убийств, похожих на дело рук серийного убийцы из прошлого. И на этом нарушения в естественном ходе вещей не заканчиваются...

Релиз:

Перевод: Vipere
Редактор перевода: Agatha
Роли озвучивали:Александр Дасевич
Анастасия Флигина
Татьяна Манетина
Сергей Пономарёв

Файл
Кодек: H.264
Качество: BDRip 720p
Видео: 1280x720 at 25.000 fps, x264@L4.1, crf, ~5500 kbps avg
Аудио#1: Russian: 48 kHz, DTS, 3/2 (L,C,R,l,r) + LFE ch, ~1509.00 kbps avg |Многоголосый закадровый, Agatha Studdio|
Аудио#2: French: 48 kHz, DTS, 3/2 (L,C,R,l,r) + LFE ch, ~1509.00 kbps avg |Оригинал|
Субтитры: none

Сохранены оригинальные главы как на Blu-ray.
01. Camille / Камилла
02. Simon / Симон
03. Julie / Жюли
04. Victor / Виктор
05. Serge et Toni / Серж и Тони
06. Lucy / Люси
07. Adèle / Адель
08. La horde / Орда
General
Complete name : Les.Revenants.s01e01.BDRip.720p.Rus(AgathaStuddio).Fre.AlexFilm.TV.mkv
Format : Matroska
Format version : Version 4 / Version 2
File size : 3.30 GiB
Duration : 54mn 48s
Overall bit rate : 8 620 Kbps
Encoded date : UTC 2015-07-26 13:06:00
Writing application : mkvmerge v8.1.0 ('Psychedelic Postcard') 64bit
Writing library : libebml v1.3.1 + libmatroska v1.4.2

Video
ID : 1
Format : AVC
Format/Info : Advanced Video Codec
Format profile : High@L4.1
Format settings, CABAC : Yes
Format settings, ReFrames : 9 frames
Codec ID : V_MPEG4/ISO/AVC
Duration : 54mn 48s
Bit rate : 5 431 Kbps
Width : 1 280 pixels
Height : 720 pixels
Display aspect ratio : 16:9
Frame rate mode : Constant
Frame rate : 25.000 fps
Color space : YUV
Chroma subsampling : 4:2:0
Bit depth : 8 bits
Scan type : Progressive
Bits/(Pixel*Frame) : 0.236
Stream size : 2.08 GiB (63%)
Writing library : x264 core 142 r2409 d6b4e63
Encoding settings : cabac=1 / ref=9 / deblock=1:-3:-3 / analyse=0x3:0x133 / me=umh / subme=10 / psy=1 / psy_rd=1.10:0.00 / mixed_ref=1 / me_range=24 / chroma_me=1 / trellis=2 / 8x8dct=1 / cqm=0 / deadzone=21,11 / fast_pskip=1 / chroma_qp_offset=-2 / threads=12 / lookahead_threads=2 / sliced_threads=0 / nr=0 / decimate=1 / interlaced=0 / bluray_compat=0 / constrained_intra=0 / bframes=8 / b_pyramid=2 / b_adapt=2 / b_bias=0 / direct=3 / weightb=1 / open_gop=0 / weightp=2 / keyint=250 / keyint_min=25 / scenecut=40 / intra_refresh=0 / rc=crf / mbtree=0 / crf=16.5 / qcomp=0.60 / qpmin=0 / qpmax=69 / qpstep=4 / ip_ratio=1.40 / pb_ratio=1.30 / aq=1:0.90
Language : French
Default : Yes
Forced : No

Audio #1
ID : 2
Format : DTS
Format/Info : Digital Theater Systems
Mode : 16
Format settings, Endianness : Big
Codec ID : A_DTS
Duration : 54mn 48s
Bit rate mode : Constant
Bit rate : 1 509 Kbps
Channel(s) : 6 channels
Channel positions : Front: L C R, Side: L R, LFE
Sampling rate : 48.0 KHz
Bit depth : 24 bits
Compression mode : Lossy
Stream size : 592 MiB (18%)
Language : Russian
Default : Yes
Forced : No

Audio #2
ID : 3
Format : DTS
Format/Info : Digital Theater Systems
Mode : 16
Format settings, Endianness : Big
Codec ID : A_DTS
Duration : 54mn 48s
Bit rate mode : Constant
Bit rate : 1 509 Kbps
Channel(s) : 6 channels
Channel positions : Front: L C R, Side: L R, LFE
Sampling rate : 48.0 KHz
Bit depth : 24 bits
Compression mode : Lossy
Stream size : 592 MiB (18%)
Language : French
Default : No
Forced : No

Menu
00:00:00.000 : :1
00:09:26.960 : :2
00:17:52.320 : :3
00:28:21.040 : :4
00:39:13.879 : :5
00:46:55.760 : :6



Скачать На.зов.скорби.Les.Revenants.(Сезон.01).(Фабрис.Гобер.Фридерик.Мерму).[2012.драма.триллер.BDRip].[720p].[MVO.(Agatha.Studdio)]+[Fre].torrent без регистрации
Золото ЗОЛОТАЯ РАЗДАЧА! СКАЧАННОЕ НЕ ЗАСЧИТЫВАЕТСЯ! Золото
Дата: Зарегистрирован   [ Тип: внутренний ] Как тут cкачать?
MAGNET ссылка
MAGNET ссылка


Скачать .torrent

123 KB

Статус: проверено DHT
Скачан: торрент - 126 раз, раздача полностью - 4 раз
Размер: 24,35 GB
Оценка:  - (Голосов: 0)
Поблагодарили: 2
Поделиться ссылкой на эту раздачу с друзьями:
В контактеFacebookОдноклассникиTwitterLivejournalМой МирLiveinternet
 

 

KIT

[] 

да уж где второй сезон?обещали и обещают...
 
Показать сообщения:    


Вы не можете начинать темы
Вы не можете отвечать на сообщения
Вы не можете редактировать свои сообщения
Вы не можете удалять свои сообщения
Вы не можете голосовать в опросах
Вы не можете прикреплять файлы к сообщениям
Вы можете скачивать файлы